<?xml version="1.0" standalone="no"?>
<!DOCTYPE svg PUBLIC "-//W3C//DTD SVG 1.1//EN" "http://www.w3.org/Graphics/SVG/1.1/DTD/svg11.dtd" >
<svg xmlns="http://www.w3.org/2000/svg" xmlns:xlink="http://www.w3.org/1999/xlink" version="1.1">
<metadata>
Created by FontForge 20150318 at Tue Oct 13 12:56:49 2015
 By uniteet7
copyright missing
</metadata>
<defs>
<font id="FFYaseerRegular" horiz-adv-x="0" >
  <font-face 
    font-family="FFYaseerRegular"
    font-weight="400"
    font-stretch="normal"
    units-per-em="1000"
    panose-1="0 0 5 0 0 0 0 0 0 0"
    ascent="800"
    descent="-200"
    x-height="397"
    cap-height="560"
    bbox="-151.018 -449.552 1216 839.083"
    underline-thickness="50"
    underline-position="-50"
    unicode-range="U+0020-FEFC"
  />
<missing-glyph horiz-adv-x="500" 
d="M0 0v700h500v-700h-500zM250 395l170 255h-340zM280 350l170 -255v510zM80 50h340l-170 255zM50 605v-510l170 255z" />
    <glyph glyph-name="uniFEF5" unicode="&#xfedf;&#xfe82;" horiz-adv-x="441" arabic-form="isolated" 
d="M383 583q-24 6 -36 -9.5t-12 -39.5q0 -10 2.5 -76.5t3.5 -123t-3.5 -114.5t-15.5 -76q-6 -9 -13.5 -16.5t-18 -12.5t-19 -9t-22.5 -6.5t-22.5 -4t-24.5 -2.5t-22 -1.5t-23 -0.5h-20q-4 0 -27 2t-40.5 1.5t-37.5 -3.5t-27.5 -13.5t-1.5 -27.5q10 -29 45.5 -42.5t82 -11
t82 8t66.5 13.5q59 16 99 52.5t41 91.5q0 5 1.5 38t2 66t1 78.5t-1.5 84t-6 73.5t-12.5 56.5t-20.5 24.5zM193 185q1 21 1 61q-4 176 -13 214q-9 36 -30 46q-26 11 -42 -4.5t-13 -41.5q3 -24 9.5 -132.5t8.5 -125.5q3 -46 33 -58q26 -11 39 15q6 11 7 26zM162 571
q31 -15 63 -6q9 3 17.5 7t17.5 10t14.5 10t16 12.5t13.5 11.5q13 11 20 34.5t-1 41.5t-34 12q-13 -3 -33.5 -30.5t-30.5 -34.5q-19 -10 -37.5 -3t-32 20.5t-33.5 19.5t-40 -7q-38 -23 -67.5 -60t-5.5 -55q14 -11 24 -1.5t16.5 26.5t22.5 25.5t41 -3.5q1 -1 21 -13.5
t28 -16.5z" />
    <glyph glyph-name="uniFEF6" unicode="&#xfee0;&#xfe82;" horiz-adv-x="573" arabic-form="final" 
d="M239 89q-18 1 -54 109q-9 29 -16 66t-3.5 81t29.5 49q32 7 54 -34.5t29.5 -97.5t6 -107t-11.5 -62q38 -8 108 8q34 9 42.5 60.5t0 120t-18 136t-5 117t32.5 54.5q25 5 51 -93.5t39 -210t3 -146.5q-8 -30 4.5 -43t42.5 -14v-82q-47 0 -75 9t-38 18t-12 9l-15 -9
q-15 -9 -53 -18t-93 -9q-82 0 -172 11q-36 5 -57 37q-20 31 6 43q5 2 12 3q13 2 54 0q22 -1 109 -5zM172 461q31 -15 63 -6q9 3 17.5 7t17.5 10t14.5 10t16 12.5t13.5 11.5q13 11 20 34.5t-1 41.5t-34 12q-13 -3 -33.5 -30.5t-30.5 -34.5q-19 -10 -37.5 -3t-32 20.5
t-33.5 19.5t-40 -7q-38 -23 -67.5 -60t-5.5 -55q14 -11 24 -1.5t16.5 26.5t22.5 25.5t41 -3.5q1 -1 21 -13.5t28 -16.5z" />
    <glyph glyph-name="uniFEF7" unicode="&#xfedf;&#xfe84;" horiz-adv-x="441" arabic-form="isolated" 
d="M383 583q-24 6 -36 -9.5t-12 -39.5q0 -10 2.5 -76.5t3.5 -123t-3.5 -114.5t-15.5 -76q-6 -9 -13.5 -16.5t-18 -12.5t-19 -9t-22.5 -6.5t-22.5 -4t-24.5 -2.5t-22 -1.5t-23 -0.5h-20q-4 0 -27 2t-40.5 1.5t-37.5 -3.5t-27.5 -13.5t-1.5 -27.5q10 -29 45.5 -42.5t82 -11
t82 8t66.5 13.5q59 16 99 52.5t41 91.5q0 5 1.5 38t2 66t1 78.5t-1.5 84t-6 73.5t-12.5 56.5t-20.5 24.5zM193 185q1 21 1 61q-4 176 -13 214q-9 36 -30 46q-26 11 -42 -4.5t-13 -41.5q3 -24 9.5 -132.5t8.5 -125.5q3 -46 33 -58q26 -11 39 15q6 11 7 26zM247 592
q-3 -19 -97.5 -30.5t-110.5 0.5q-11 10 -8 25.5t16 20.5q15 7 32 11q10 2 11.5 5.5t-0.5 25.5q-1 14 -2 23q-3 47 35 69t66 -4q10 -9 6.5 -21.5t-17.5 -17.5q-21 -6 -29 -17.5t-2.5 -24t21.5 -24.5q6 -3 28.5 -6t38 -10.5t12.5 -24.5z" />
    <glyph glyph-name="uniFEF8" unicode="&#xfee0;&#xfe84;" horiz-adv-x="573" arabic-form="final" 
d="M239 89q-18 1 -54 109q-9 29 -16 66t-3.5 81t29.5 49q32 7 54 -34.5t29.5 -97.5t6 -107t-11.5 -62q38 -8 108 8q34 9 42.5 60.5t0 120t-18 136t-5 117t32.5 54.5q25 5 51 -93.5t39 -210t3 -146.5q-8 -30 4.5 -43t42.5 -14v-82q-47 0 -75 9t-38 18t-12 9l-15 -9
q-15 -9 -53 -18t-93 -9q-82 0 -172 11q-36 5 -57 37q-20 31 6 43q5 2 12 3q13 2 54 0q22 -1 109 -5zM307 475q-3 -19 -97.5 -30.5t-110.5 0.5q-11 10 -8 25.5t16 20.5q15 7 32 11q10 2 11.5 5.5t-0.5 25.5q-1 14 -2 23q-3 47 35 69t66 -4q10 -9 6.5 -21.5t-17.5 -17.5
q-21 -6 -29 -17.5t-2.5 -24t21.5 -24.5q6 -3 28.5 -6t38 -10.5t12.5 -24.5z" />
    <glyph glyph-name="uniFEF9" unicode="&#xfedf;&#xfe88;" horiz-adv-x="441" arabic-form="isolated" 
d="M383 583q-24 6 -36 -9.5t-12 -39.5q0 -10 2.5 -76.5t3.5 -123t-3.5 -114.5t-15.5 -76q-6 -9 -13.5 -16.5t-18 -12.5t-19 -9t-22.5 -6.5t-22.5 -4t-24.5 -2.5t-22 -1.5t-23 -0.5h-20q-4 0 -27 2t-40.5 1.5t-37.5 -3.5t-27.5 -13.5t-1.5 -27.5q10 -29 45.5 -42.5t82 -11
t82 8t66.5 13.5q59 16 99 52.5t41 91.5q0 5 1.5 38t2 66t1 78.5t-1.5 84t-6 73.5t-12.5 56.5t-20.5 24.5zM193 185q1 21 1 61q-4 176 -13 214q-9 36 -30 46q-26 11 -42 -4.5t-13 -41.5q3 -24 9.5 -132.5t8.5 -125.5q3 -46 33 -58q26 -11 39 15q6 11 7 26zM277 -209
q-3 -19 -97.5 -30.5t-110.5 0.5q-11 10 -8 25.5t16 20.5q15 7 32 11q10 2 11.5 5.5t-0.5 25.5q-1 14 -2 23q-3 47 35 69t66 -4q10 -9 6.5 -21.5t-17.5 -17.5q-21 -6 -29 -17.5t-2.5 -24t21.5 -24.5q6 -3 28.5 -6t38 -10.5t12.5 -24.5z" />
    <glyph glyph-name="uniFEFA" unicode="&#xfee0;&#xfe88;" horiz-adv-x="573" arabic-form="final" 
d="M239 89q-18 1 -54 109q-9 29 -16 66t-3.5 81t29.5 49q32 7 54 -34.5t29.5 -97.5t6 -107t-11.5 -62q38 -8 108 8q34 9 42.5 60.5t0 120t-18 136t-5 117t32.5 54.5q25 5 51 -93.5t39 -210t3 -146.5q-8 -30 4.5 -43t42.5 -14v-82q-47 0 -75 9t-38 18t-12 9l-15 -9
q-15 -9 -53 -18t-93 -9q-82 0 -172 11q-36 5 -57 37q-20 31 6 43q5 2 12 3q13 2 54 0q22 -1 109 -5zM317 -209q-3 -19 -97.5 -30.5t-110.5 0.5q-11 10 -8 25.5t16 20.5q15 7 32 11q10 2 11.5 5.5t-0.5 25.5q-1 14 -2 23q-3 47 35 69t66 -4q10 -9 6.5 -21.5t-17.5 -17.5
q-21 -6 -29 -17.5t-2.5 -24t21.5 -24.5q6 -3 28.5 -6t38 -10.5t12.5 -24.5z" />
    <glyph glyph-name="uniFEFB" unicode="&#xfedf;&#xfe8e;" horiz-adv-x="441" arabic-form="isolated" 
d="M383 583q-24 6 -36 -9.5t-12 -39.5q0 -10 2.5 -76.5t3.5 -123t-3.5 -114.5t-15.5 -76q-6 -9 -13.5 -16.5t-18 -12.5t-19 -9t-22.5 -6.5t-22.5 -4t-24.5 -2.5t-22 -1.5t-23 -0.5h-20q-4 0 -27 2t-40.5 1.5t-37.5 -3.5t-27.5 -13.5t-1.5 -27.5q10 -29 45.5 -42.5t82 -11
t82 8t66.5 13.5q59 16 99 52.5t41 91.5q0 5 1.5 38t2 66t1 78.5t-1.5 84t-6 73.5t-12.5 56.5t-20.5 24.5zM193 185q1 21 1 61q-4 176 -13 214q-9 36 -30 46q-26 11 -42 -4.5t-13 -41.5q3 -24 9.5 -132.5t8.5 -125.5q3 -46 33 -58q26 -11 39 15q6 11 7 26z" />
    <glyph glyph-name="uniFEFC" unicode="&#xfee0;&#xfe8e;" horiz-adv-x="573" arabic-form="final" 
d="M239 89q-18 1 -54 109q-9 29 -16 66t-3.5 81t29.5 49q32 7 54 -34.5t29.5 -97.5t6 -107t-11.5 -62q38 -8 108 8q34 9 42.5 60.5t0 120t-18 136t-5 117t32.5 54.5q25 5 51 -93.5t39 -210t3 -146.5q-8 -30 4.5 -43t42.5 -14v-82q-47 0 -75 9t-38 18t-12 9l-15 -9
q-15 -9 -53 -18t-93 -9q-82 0 -172 11q-36 5 -57 37q-20 31 6 43q5 2 12 3q13 2 54 0q22 -1 109 -5z" />
    <glyph glyph-name="uni066E.init" unicode="&#x66e;" horiz-adv-x="223" 
d="M56 0h-55q-18 0 -34.5 12t-16.5 29q0 18 14 29.5t36 11.5h11h14.5t15 1t16.5 3t14.5 6.5t12.5 10.5t7.5 15.5t3.5 21.5t-2.5 32.5t-2.5 28.5q-1 13 0 26q5 32 36 35.5t36 -27.5q7 -41 10 -72t-0.5 -63t-15.5 -53t-37 -34t-63 -13z" />
    <glyph glyph-name="uni066E.medi" unicode="&#x66e;" horiz-adv-x="249" 
d="M0 0q-22 0 -36 11.5t-14 29.5t14 29.5t36 11.5h18t19.5 2t23 8t18 15t15 26t4.5 40q0 21 1 32q2 20 4 25q4 17 15.5 28t22.5 10q25 -2 33 -38q3 -15 6.5 -40.5t7 -41t10 -32.5t19.5 -25t32 -9v-82q-40 0 -63 8t-51 33q-52 -41 -135 -41z" />
    <glyph glyph-name="uni066E.fina" unicode="&#x66e;" horiz-adv-x="806" 
d="M606 105q43 5 47.5 26.5t-9.5 83.5q-10 60 23 84q28 20 51 -5q16 -17 21 -50q3 -20 5 -37.5t3.5 -39t3.5 -38.5q5 -47 53 -47h2v-82h-40q-11 0 -20.5 1.5t-15.5 3t-14 5.5t-10 5.5t-10 6.5l-8 6q-104 -28 -334 -27q-40 0 -75 3t-70.5 10t-63.5 17.5t-50.5 28t-33.5 40
t-11 53.5t14 69q3 8 8.5 23.5t8.5 24t8.5 20.5t10.5 17.5t12 10.5t15.5 5t18.5 -5q27 -13 20 -45q-4 -23 -16 -67q-11 -35 5 -60t53.5 -37t84 -18t105 -4t107.5 6.5t101 11.5z" />
    <glyph glyph-name="uni06A1.init" unicode="&#x6a1;" horiz-adv-x="387" 
d="M229 140q-112 14 -156.5 53.5t-12.5 104.5q22 45 63 69.5t93 11.5q35 -7 65 -43q76 -88 49 -221q-8 -43 -73 -70.5t-130 -36t-126 -8.5q-18 0 -34.5 11t-16.5 30q0 39 50 41q6 0 32 -0.5t42 0t42.5 1.5t43.5 5t34.5 10t26 17t8.5 25zM218 229q-8 41 -37 56
q-25 14 -38.5 -9.5t10.5 -38.5q30 -19 65 -8z" />
    <glyph glyph-name="uni06A1.medi" unicode="&#x6a1;" horiz-adv-x="355" 
d="M282 82h73v-82h-40q-27 0 -84.5 8t-64.5 7q-90 -15 -162 -15h-4q-50 0 -50 41t50 41h83q-23 35 -30 70t6.5 71t49.5 63q74 55 137 22q28 -15 44.5 -43t18.5 -61q1 -11 1 -20.5t-1 -18.5t-2.5 -15.5t-4.5 -16t-5 -15t-7.5 -18t-7.5 -18.5zM155 110q25 4 37 12.5t16 27.5
q13 57 -18 69q-24 10 -45 -14q-30 -32 -1 -80q5 -7 11 -15z" />
    <glyph glyph-name="uni06A1.fina" unicode="&#x6a1;" horiz-adv-x="706" 
d="M405 131q0 92 36 144q50 70 106 64q63 -8 91 -63q18 -35 21.5 -70t0.5 -54.5t-15 -69.5h61v-82q-110 0 -167 -5q-18 -2 -68 -7.5t-78.5 -7.5t-69.5 -2.5t-74.5 5.5t-61.5 18q-49 22 -85.5 59.5t-47.5 85.5q-6 40 -1 62t23 59q10 22 30.5 27.5t39.5 -8.5q20 -13 13 -60
q-11 -76 33.5 -114t130.5 -49q32 -4 48 -5.5t28 -0.5t14 3.5t2.5 9t-2.5 13.5t-5.5 20.5t-2.5 27.5zM538 102q24 29 24.5 65t-21.5 62q-21 26 -39 1q-20 -28 -7 -72q11 -36 43 -56z" />
    <glyph glyph-name="uniFB57" unicode="&#x67e;" horiz-adv-x="806" arabic-form="final" 
d="M606 105q43 5 47.5 26.5t-9.5 83.5q-10 60 23 84q28 20 51 -5q16 -17 21 -50q3 -20 5 -37.5t3.5 -39t3.5 -38.5q5 -47 53 -47h2v-82h-40q-11 0 -20.5 1.5t-15.5 3t-14 5.5t-10 5.5t-10 6.5l-8 6q-104 -28 -334 -27q-40 0 -75 3t-70.5 10t-63.5 17.5t-50.5 28t-33.5 40
t-11 53.5t14 69q3 8 8.5 23.5t8.5 24t8.5 20.5t10.5 17.5t12 10.5t15.5 5t18.5 -5q27 -13 20 -45q-4 -23 -16 -67q-11 -35 5 -60t53.5 -37t84 -18t105 -4t107.5 6.5t101 11.5zM464 -104q38 46 60 34t1 -65q-12 -30 -38 -65q-54 -73 -127 -15q-50 39 -74 103q-21 54 3 61
q23 6 80 -43q13 -11 25.5 -25t16.5 -18.5t12 -4.5t16 8.5t25 29.5z" />
    <glyph glyph-name="uniFB58" unicode="&#x67e;" horiz-adv-x="223" arabic-form="initial" 
d="M56 0h-55q-18 0 -34.5 12t-16.5 29q0 18 14 29.5t36 11.5h11h14.5t15 1t16.5 3t14.5 6.5t12.5 10.5t7.5 15.5t3.5 21.5t-2.5 32.5t-2.5 28.5q-1 13 0 26q5 32 36 35.5t36 -27.5q7 -41 10 -72t-0.5 -63t-15.5 -53t-37 -34t-63 -13zM164 -104q38 46 60 34t1 -65
q-12 -30 -38 -65q-54 -73 -127 -15q-50 39 -74 103q-21 54 3 61q23 6 80 -43q13 -11 25.5 -25t16.5 -18.5t12 -4.5t16 8.5t25 29.5z" />
    <glyph glyph-name="uniFB59" unicode="&#x67e;" horiz-adv-x="249" arabic-form="medial" 
d="M0 0q-22 0 -36 11.5t-14 29.5t14 29.5t36 11.5h18t19.5 2t23 8t18 15t15 26t4.5 40q0 21 1 32q2 20 4 25q4 17 15.5 28t22.5 10q25 -2 33 -38q3 -15 6.5 -40.5t7 -41t10 -32.5t19.5 -25t32 -9v-82q-40 0 -63 8t-51 33q-52 -41 -135 -41zM184 -104q38 46 60 34t1 -65
q-12 -30 -38 -65q-54 -73 -127 -15q-50 39 -74 103q-21 54 3 61q23 6 80 -43q13 -11 25.5 -25t16.5 -18.5t12 -4.5t16 8.5t25 29.5z" />
    <glyph glyph-name="vehar.fina" unicode="&#x6a4;" horiz-adv-x="706" arabic-form="final" 
d="M405 131q0 92 36 144q50 70 106 64q63 -8 91 -63q18 -35 21.5 -70t0.5 -54.5t-15 -69.5h61v-82q-110 0 -167 -5q-18 -2 -68 -7.5t-78.5 -7.5t-69.5 -2.5t-74.5 5.5t-61.5 18q-49 22 -85.5 59.5t-47.5 85.5q-6 40 -1 62t23 59q10 22 30.5 27.5t39.5 -8.5q20 -13 13 -60
q-11 -76 33.5 -114t130.5 -49q32 -4 48 -5.5t28 -0.5t14 3.5t2.5 9t-2.5 13.5t-5.5 20.5t-2.5 27.5zM538 102q24 29 24.5 65t-21.5 62q-21 26 -39 1q-20 -28 -7 -72q11 -36 43 -56zM578 424q-17 21 -25 29.5t-16 8.5t-12 -4.5t-16.5 -18.5t-25.5 -25q-79 -69 -91 -32
q-9 29 28 90q44 72 96 86q48 11 85 -38q57 -78 46 -117q-7 -26 -36 -9q-16 9 -33 30z" />
    <glyph glyph-name="vehar.init" unicode="&#x6a4;" horiz-adv-x="387" arabic-form="initial" 
d="M229 140q-112 14 -156.5 53.5t-12.5 104.5q22 45 63 69.5t93 11.5q35 -7 65 -43q76 -88 49 -221q-8 -43 -73 -70.5t-130 -36t-126 -8.5q-18 0 -34.5 11t-16.5 30q0 39 50 41q6 0 32 -0.5t42 0t42.5 1.5t43.5 5t34.5 10t26 17t8.5 25zM218 229q-8 41 -37 56
q-25 14 -38.5 -9.5t10.5 -38.5q30 -19 65 -8zM218 454q-17 21 -25 29.5t-16 8.5t-12 -4.5t-16.5 -18.5t-25.5 -25q-79 -69 -91 -32q-9 29 28 90q44 72 96 86q48 11 85 -38q57 -78 46 -117q-7 -26 -36 -9q-17 10 -33 30z" />
    <glyph glyph-name="vehar.medi" unicode="&#x6a4;" horiz-adv-x="355" arabic-form="medial" 
d="M282 82h73v-82h-40q-27 0 -84.5 8t-64.5 7q-90 -15 -162 -15h-4q-50 0 -50 41t50 41h83q-23 35 -30 70t6.5 71t49.5 63q74 55 137 22q28 -15 44.5 -43t18.5 -61q1 -11 1 -20.5t-1 -18.5t-2.5 -15.5t-4.5 -16t-5 -15t-7.5 -18t-7.5 -18.5zM155 110q25 4 37 12.5t16 27.5
q13 57 -18 69q-24 10 -45 -14q-30 -32 -1 -80q5 -7 11 -15zM218 404q-17 21 -25 29.5t-16 8.5t-12 -4.5t-16.5 -18.5t-25.5 -25q-79 -69 -91 -32q-9 29 28 90q44 72 96 86q48 11 85 -38q57 -78 46 -117q-7 -26 -36 -9q-17 10 -33 30z" />
    <glyph glyph-name="uniFB7B" unicode="&#x686;" horiz-adv-x="580" arabic-form="final" 
d="M414 340q76 -32 104 -100t12 -158h50v-82q-13 0 -88 -2q-33 -1 -201 -21q-3 0 -8 -1q-28 -3 -43 -5.5t-41 -10.5t-39.5 -18t-23 -28.5t-7.5 -43.5q4 -38 43 -60t90.5 -29t101.5 -11.5t81.5 -16t25.5 -34.5q-14 -53 -59.5 -62.5t-87.5 6.5q-8 1 -12 2q-45 8 -73 15
t-65.5 21.5t-61 32.5t-45 48.5t-31.5 69.5q-15 58 8.5 105.5t78.5 71.5q24 10 71 20t87 16t84 11.5t48 6.5q28 10 28 44.5t-28 77t-63 55.5q-37 13 -83 14.5t-84 -3.5q-51 -5 -62 16q-23 41 44 64q77 25 180 8q39 -7 69 -19zM509 -94q38 46 60 34t1 -65q-12 -30 -38 -65
q-54 -73 -127 -15q-50 39 -74 103q-21 54 3 61q23 6 80 -43q13 -11 25.5 -25t16.5 -18.5t12 -4.5t16 8.5t25 29.5z" />
    <glyph glyph-name="uniFB7C" unicode="&#x686;" horiz-adv-x="508" arabic-form="initial" 
d="M354 162q0 138 -259 112q-29 -2 -39 11q-11 14 -6.5 33t20.5 28q17 8 34 12q97 16 162 9q91 -11 151.5 -87.5t30.5 -145.5q-35 -79 -143 -105.5t-304 -28.5q-51 0 -51 41t50 41q354 -3 354 80zM259 -104q38 46 60 34t1 -65q-12 -30 -38 -65q-54 -73 -127 -15
q-50 39 -74 103q-21 54 3 61q23 6 80 -43q13 -11 25.5 -25t16.5 -18.5t12 -4.5t16 8.5t25 29.5z" />
    <glyph glyph-name="uniFB7D" unicode="&#x686;" horiz-adv-x="518" arabic-form="medial" 
d="M518 82v-82h-21q-48 0 -85 13.5t-52 30.5q-56 -25 -141.5 -34t-217.5 -10q-51 0 -51 41t50 41q354 -3 354 80q0 60 -32.5 86.5t-88.5 26t-131 -4.5q-5 -1 -7 -1q-29 -2 -39 11q-36 49 49 72q73 20 161 10q91 -10 136.5 -69.5t45.5 -158.5q0 -24 13 -38t37 -14h20z
M269 -104q38 46 60 34t1 -65q-12 -30 -38 -65q-54 -73 -127 -15q-50 39 -74 103q-21 54 3 61q23 6 80 -43q13 -11 25.5 -25t16.5 -18.5t12 -4.5t16 8.5t25 29.5z" />
    <glyph glyph-name="uniFC00" unicode="&#xfc00;" horiz-adv-x="636" arabic-form="isolated" 
d="M482 512q-3 -19 -97.5 -30.5t-110.5 0.5q-11 10 -8 25.5t16 20.5q15 7 32 11q10 2 11.5 5.5t-0.5 25.5q-1 14 -2 23q-3 47 35 69t66 -4q10 -9 6.5 -21.5t-17.5 -17.5q-21 -6 -29 -17.5t-2.5 -24t21.5 -24.5q6 -3 28.5 -6t38 -10.5t12.5 -24.5zM437 -178q-19 16 -41 18
t-35 -16.5t-2 -47.5q15 -39 51 -28q29 9 37 35q6 21 -10 39zM165 -183q-4 -37 8.5 -67.5t33.5 -49t49.5 -32t52.5 -19t46 -6.5l11 -1q11 0 15 -0.5t14.5 -1.5t16 -3.5t12 -6t10 -9t3.5 -12.5q1 -21 -14 -39t-34 -19q-81 -4 -155.5 21t-122 71.5t-59.5 111t32 138.5
q21 35 44 57.5t56.5 34.5t57.5 17t78 12t87 13q60 11 71.5 41t-43.5 64q-24 14 -120.5 31.5t-119.5 33.5q-30 23 -16 41.5t50 13.5q16 -2 24.5 -3t24.5 -1.5t24 2.5l20 7.5t17.5 14t10 23t3.5 33.5t-6 46q-9 41 18 52q25 11 47 -18q11 -15 17 -35q11 -41 8 -82.5t-16 -68.5
q60 -17 99.5 -44.5t54.5 -57.5t9.5 -62t-29.5 -58t-67.5 -45t-100.5 -25q-12 -1 -48 -3.5t-51 -4.5t-43 -9t-40.5 -17.5t-25 -30.5t-14.5 -48z" />
    <glyph glyph-name="uniFC01" unicode="&#xfc01;" horiz-adv-x="636" arabic-form="isolated" 
d="M482 512q-3 -19 -97.5 -30.5t-110.5 0.5q-11 10 -8 25.5t16 20.5q15 7 32 11q10 2 11.5 5.5t-0.5 25.5q-1 14 -2 23q-3 47 35 69t66 -4q10 -9 6.5 -21.5t-17.5 -17.5q-21 -6 -29 -17.5t-2.5 -24t21.5 -24.5q6 -3 28.5 -6t38 -10.5t12.5 -24.5zM165 -183q-4 -37 8.5 -67.5
t33.5 -49t49.5 -32t52.5 -19t46 -6.5l11 -1q11 0 15 -0.5t14.5 -1.5t16 -3.5t12 -6t10 -9t3.5 -12.5q1 -21 -14 -39t-34 -19q-81 -4 -155.5 21t-122 71.5t-59.5 111t32 138.5q21 35 44 57.5t56.5 34.5t57.5 17t78 12t87 13q60 11 71.5 41t-43.5 64q-24 14 -120.5 31.5
t-119.5 33.5q-30 23 -16 41.5t50 13.5q16 -2 24.5 -3t24.5 -1.5t24 2.5l20 7.5t17.5 14t10 23t3.5 33.5t-6 46q-9 41 18 52q25 11 47 -18q11 -15 17 -35q11 -41 8 -82.5t-16 -68.5q60 -17 99.5 -44.5t54.5 -57.5t9.5 -62t-29.5 -58t-67.5 -45t-100.5 -25q-12 -1 -48 -3.5
t-51 -4.5t-43 -9t-40.5 -17.5t-25 -30.5t-14.5 -48z" />
    <glyph glyph-name="uniFC05" unicode="&#xfc05;" horiz-adv-x="636" arabic-form="isolated" 
d="M562 330q-19 16 -41 18t-35 -16.5t-2 -47.5q15 -39 51 -28q29 9 37 35q6 21 -10 39zM448 -181q-19 16 -41 18t-35 -16.5t-2 -47.5q15 -39 51 -28q29 9 37 35q6 21 -10 39zM165 -183q-4 -37 8.5 -67.5t33.5 -49t49.5 -32t52.5 -19t46 -6.5l11 -1q11 0 15 -0.5t14.5 -1.5
t16 -3.5t12 -6t10 -9t3.5 -12.5q1 -21 -14 -39t-34 -19q-81 -4 -155.5 21t-122 71.5t-59.5 111t32 138.5q21 35 44 57.5t56.5 34.5t57.5 17t78 12t87 13q60 11 71.5 41t-43.5 64q-24 14 -120.5 31.5t-119.5 33.5q-30 23 -16 41.5t50 13.5q16 -2 24.5 -3t24.5 -1.5t24 2.5
l20 7.5t17.5 14t10 23t3.5 33.5t-6 46q-9 41 18 52q25 11 47 -18q11 -15 17 -35q11 -41 8 -82.5t-16 -68.5q60 -17 99.5 -44.5t54.5 -57.5t9.5 -62t-29.5 -58t-67.5 -45t-100.5 -25q-12 -1 -48 -3.5t-51 -4.5t-43 -9t-40.5 -17.5t-25 -30.5t-14.5 -48z" />
    <glyph glyph-name="uniFC06" unicode="&#xfc06;" horiz-adv-x="636" arabic-form="isolated" 
d="M562 330q-19 16 -41 18t-35 -16.5t-2 -47.5q15 -39 51 -28q29 9 37 35q6 21 -10 39zM166 -183q-4 -37 8.5 -67.5t33.5 -49t49.5 -32t52.5 -19t46 -6.5l11 -1q11 0 15 -0.5t14.5 -1.5t16 -3.5t12 -6t10 -9t3.5 -12.5q1 -21 -14 -39t-34 -19q-81 -4 -155.5 21t-122 71.5
t-59.5 111t32 138.5q21 35 44 57.5t56.5 34.5t57.5 17t78 12t87 13q60 11 71.5 41t-43.5 64q-24 14 -120.5 31.5t-119.5 33.5q-30 23 -16 41.5t50 13.5q16 -2 24.5 -3t24.5 -1.5t24 2.5l20 7.5t17.5 14t10 23t3.5 33.5t-6 46q-9 41 18 52q25 11 47 -18q11 -15 17 -35
q11 -41 8 -82.5t-16 -68.5q60 -17 99.5 -44.5t54.5 -57.5t9.5 -62t-29.5 -58t-67.5 -45t-100.5 -25q-12 -1 -48 -3.5t-51 -4.5t-43 -9t-40.5 -17.5t-25 -30.5t-14.5 -48z" />
    <glyph glyph-name="uniFC07" unicode="&#xfc07;" horiz-adv-x="636" arabic-form="isolated" 
d="M562 330q-19 16 -41 18t-35 -16.5t-2 -47.5q15 -39 51 -28q29 9 37 35q6 21 -10 39zM165 -183q-4 -37 8.5 -67.5t33.5 -49t49.5 -32t52.5 -19t46 -6.5l11 -1q11 0 15 -0.5t14.5 -1.5t16 -3.5t12 -6t10 -9t3.5 -12.5q1 -21 -14 -39t-34 -19q-81 -4 -155.5 21t-122 71.5
t-59.5 111t32 138.5q21 35 44 57.5t56.5 34.5t57.5 17t78 12t87 13q60 11 71.5 41t-43.5 64q-24 14 -120.5 31.5t-119.5 33.5q-30 23 -16 41.5t50 13.5q16 -2 24.5 -3t24.5 -1.5t24 2.5l20 7.5t17.5 14t10 23t3.5 33.5t-6 46q-9 41 18 52q25 11 47 -18q11 -15 17 -35
q11 -41 8 -82.5t-16 -68.5q60 -17 99.5 -44.5t54.5 -57.5t9.5 -62t-29.5 -58t-67.5 -45t-100.5 -25q-12 -1 -48 -3.5t-51 -4.5t-43 -9t-40.5 -17.5t-25 -30.5t-14.5 -48zM210 424q-16 23 -43 19.5t-38.5 -25t3.5 -51.5q19 -30 46 -25.5t36.5 29.5t-4.5 53z" />
    <glyph glyph-name="uniFC0B" unicode="&#xfc0b;" horiz-adv-x="636" arabic-form="isolated" 
d="M466 554q-14 20 -42.5 22t-47.5 -16t-8 -47q15 -42 56 -36q34 5 47 33q10 22 -5 44zM352 554q-22 16 -53.5 14t-45.5 -19t0 -46q16 -25 44 -27t47 11q28 14 29 33q2 17 -21 34zM450 -188q-19 16 -41 18t-35 -16.5t-2 -47.5q15 -39 51 -28q29 9 37 35q6 21 -10 39z
M165 -183q-4 -37 8.5 -67.5t33.5 -49t49.5 -32t52.5 -19t46 -6.5l11 -1q11 0 15 -0.5t14.5 -1.5t16 -3.5t12 -6t10 -9t3.5 -12.5q1 -21 -14 -39t-34 -19q-81 -4 -155.5 21t-122 71.5t-59.5 111t32 138.5q21 35 44 57.5t56.5 34.5t57.5 17t78 12t87 13q60 11 71.5 41
t-43.5 64q-24 14 -120.5 31.5t-119.5 33.5q-30 23 -16 41.5t50 13.5q16 -2 24.5 -3t24.5 -1.5t24 2.5l20 7.5t17.5 14t10 23t3.5 33.5t-6 46q-9 41 18 52q25 11 47 -18q11 -15 17 -35q11 -41 8 -82.5t-16 -68.5q60 -17 99.5 -44.5t54.5 -57.5t9.5 -62t-29.5 -58t-67.5 -45
t-100.5 -25q-12 -1 -48 -3.5t-51 -4.5t-43 -9t-40.5 -17.5t-25 -30.5t-14.5 -48z" />
    <glyph glyph-name="uniFC0C" unicode="&#xfc0c;" horiz-adv-x="636" arabic-form="isolated" 
d="M466 554q-14 20 -42.5 22t-47.5 -16t-8 -47q15 -42 56 -36q34 5 47 33q10 22 -5 44zM352 554q-22 16 -53.5 14t-45.5 -19t0 -46q16 -25 44 -27t47 11q28 14 29 33q2 17 -21 34zM165 -183q-4 -37 8.5 -67.5t33.5 -49t49.5 -32t52.5 -19t46 -6.5l11 -1q11 0 15 -0.5
t14.5 -1.5t16 -3.5t12 -6t10 -9t3.5 -12.5q1 -21 -14 -39t-34 -19q-81 -4 -155.5 21t-122 71.5t-59.5 111t32 138.5q21 35 44 57.5t56.5 34.5t57.5 17t78 12t87 13q60 11 71.5 41t-43.5 64q-24 14 -120.5 31.5t-119.5 33.5q-30 23 -16 41.5t50 13.5q16 -2 24.5 -3t24.5 -1.5
t24 2.5l20 7.5t17.5 14t10 23t3.5 33.5t-6 46q-9 41 18 52q25 11 47 -18q11 -15 17 -35q11 -41 8 -82.5t-16 -68.5q60 -17 99.5 -44.5t54.5 -57.5t9.5 -62t-29.5 -58t-67.5 -45t-100.5 -25q-12 -1 -48 -3.5t-51 -4.5t-43 -9t-40.5 -17.5t-25 -30.5t-14.5 -48z" />
    <glyph glyph-name="uniFC0D" unicode="&#xfc0d;" horiz-adv-x="636" arabic-form="isolated" 
d="M466 554q-14 20 -42.5 22t-47.5 -16t-8 -47q15 -42 56 -36q34 5 47 33q10 22 -5 44zM352 554q-22 16 -53.5 14t-45.5 -19t0 -46q16 -25 44 -27t47 11q28 14 29 33q2 17 -21 34zM190 437q-16 23 -43 19.5t-38.5 -25t3.5 -51.5q19 -30 46 -25.5t36.5 29.5t-4.5 53z
M165 -183q-4 -37 8.5 -67.5t33.5 -49t49.5 -32t52.5 -19t46 -6.5l11 -1q11 0 15 -0.5t14.5 -1.5t16 -3.5t12 -6t10 -9t3.5 -12.5q1 -21 -14 -39t-34 -19q-81 -4 -155.5 21t-122 71.5t-59.5 111t32 138.5q21 35 44 57.5t56.5 34.5t57.5 17t78 12t87 13q60 11 71.5 41
t-43.5 64q-24 14 -120.5 31.5t-119.5 33.5q-30 23 -16 41.5t50 13.5q16 -2 24.5 -3t24.5 -1.5t24 2.5l20 7.5t17.5 14t10 23t3.5 33.5t-6 46q-9 41 18 52q25 11 47 -18q11 -15 17 -35q11 -41 8 -82.5t-16 -68.5q60 -17 99.5 -44.5t54.5 -57.5t9.5 -62t-29.5 -58t-67.5 -45
t-100.5 -25q-12 -1 -48 -3.5t-51 -4.5t-43 -9t-40.5 -17.5t-25 -30.5t-14.5 -48z" />
    <glyph glyph-name="uniFC11" unicode="&#xfc11;" horiz-adv-x="636" arabic-form="isolated" 
d="M417 511q-17 21 -25 29.5t-16 8.5t-12 -4.5t-16.5 -18.5t-25.5 -25q-79 -69 -91 -32q-9 29 28 90q44 72 96 86q48 11 85 -38q57 -78 46 -117q-7 -26 -36 -9q-17 10 -33 30zM457 -178q-19 16 -41 18t-35 -16.5t-2 -47.5q15 -39 51 -28q29 9 37 35q6 21 -10 39zM165 -183
q-4 -37 8.5 -67.5t33.5 -49t49.5 -32t52.5 -19t46 -6.5l11 -1q11 0 15 -0.5t14.5 -1.5t16 -3.5t12 -6t10 -9t3.5 -12.5q1 -21 -14 -39t-34 -19q-81 -4 -155.5 21t-122 71.5t-59.5 111t32 138.5q21 35 44 57.5t56.5 34.5t57.5 17t78 12t87 13q60 11 71.5 41t-43.5 64
q-24 14 -120.5 31.5t-119.5 33.5q-30 23 -16 41.5t50 13.5q16 -2 24.5 -3t24.5 -1.5t24 2.5l20 7.5t17.5 14t10 23t3.5 33.5t-6 46q-9 41 18 52q25 11 47 -18q11 -15 17 -35q11 -41 8 -82.5t-16 -68.5q60 -17 99.5 -44.5t54.5 -57.5t9.5 -62t-29.5 -58t-67.5 -45t-100.5 -25
q-12 -1 -48 -3.5t-51 -4.5t-43 -9t-40.5 -17.5t-25 -30.5t-14.5 -48z" />
    <glyph glyph-name="uniFC32" unicode="&#xfc32;" horiz-adv-x="706" arabic-form="isolated" 
d="M600 336q76 -88 49 -221q-17 -88 -125 -109q5 -28 2 -63.5t-28.5 -72.5t-66.5 -51q-50 -15 -125.5 -13t-125.5 19q-41 13 -75.5 50t-47.5 78q-15 46 2.5 93t56.5 82q16 13 33 4q19 -13 18 -32t-15 -60t-13 -64q1 -31 29.5 -52t67 -27.5t78 -8.5t63.5 5q55 14 69 43
q16 32 -50 85q-5 4 -16 11.5t-16 13t-9 15.5q-8 23 4.5 29.5t41.5 3.5q108 -11 114 -11q33 0 33 57q-112 14 -156.5 53.5t-12.5 104.5q22 45 63 69.5t93 11.5q35 -7 65 -43zM472 237q30 -19 65 -8q-8 41 -37 56q-25 14 -38.5 -9.5t10.5 -38.5zM534 515q-16 23 -43 19.5
t-38.5 -25t3.5 -51.5q19 -30 46 -25.5t36.5 29.5t-4.5 53zM405 -271q-16 22 -43.5 23.5t-45.5 -12.5q-31 -20 -29 -32q3 -23 43 -38q35 -13 66.5 6.5t8.5 52.5zM291 -258q-15 23 -42.5 21.5t-48 -25t-8.5 -47.5q17 -34 48.5 -35t49 26t1.5 60z" />
    <glyph glyph-name="uniFC3F" unicode="&#xfc3f;" horiz-adv-x="634" arabic-form="isolated" 
d="M165 -183q-4 -37 8.5 -67.5t33.5 -49t49.5 -32t52.5 -19t46 -6.5l11 -1q11 0 15 -0.5t14.5 -1.5t16 -3.5t12 -6t10 -9t3.5 -12.5q1 -21 -14 -39t-34 -19q-81 -4 -155.5 21t-122 71.5t-59.5 111t32 138.5q21 35 44 57.5t56.5 34.5t57.5 17t78 12t87 13q60 11 71.5 41
t-43.5 64q-20 12 -134.5 35t-123.5 43q-9 23 6.5 31.5t60 17t73.5 22.5q28 12 29 41.5t-11 89t-12 102.5q0 92 34 104q24 9 44 -30q5 -11 9 -24q14 -51 22.5 -105.5t5.5 -114t-21 -97.5q89 -25 132 -73t35 -96t-60 -90t-137 -58q-18 -3 -48 -6l-50 -5t-44.5 -8.5
t-39.5 -16.5t-26.5 -29.5t-13.5 -47.5zM442 -184q-19 16 -41 18t-35 -16.5t-2 -47.5q15 -39 51 -28q29 9 37 35q6 21 -10 39z" />
    <glyph glyph-name="uniFC40" unicode="&#xfc40;" horiz-adv-x="634" arabic-form="isolated" 
d="M165 -183q-4 -37 8.5 -67.5t33.5 -49t49.5 -32t52.5 -19t46 -6.5l11 -1q11 0 15 -0.5t14.5 -1.5t16 -3.5t12 -6t10 -9t3.5 -12.5q1 -21 -14 -39t-34 -19q-81 -4 -155.5 21t-122 71.5t-59.5 111t32 138.5q21 35 44 57.5t56.5 34.5t57.5 17t78 12t87 13q60 11 71.5 41
t-43.5 64q-20 12 -134.5 35t-123.5 43q-9 23 6.5 31.5t60 17t73.5 22.5q28 12 29 41.5t-11 89t-12 102.5q0 92 34 104q24 9 44 -30q5 -11 9 -24q14 -51 22.5 -105.5t5.5 -114t-21 -97.5q89 -25 132 -73t35 -96t-60 -90t-137 -58q-18 -3 -48 -6l-50 -5t-44.5 -8.5
t-39.5 -16.5t-26.5 -29.5t-13.5 -47.5z" />
    <glyph glyph-name="uniFC41" unicode="&#xfc41;" horiz-adv-x="634" arabic-form="isolated" 
d="M165 -183q-4 -37 8.5 -67.5t33.5 -49t49.5 -32t52.5 -19t46 -6.5l11 -1q11 0 15 -0.5t14.5 -1.5t16 -3.5t12 -6t10 -9t3.5 -12.5q1 -21 -14 -39t-34 -19q-81 -4 -155.5 21t-122 71.5t-59.5 111t32 138.5q21 35 44 57.5t56.5 34.5t57.5 17t78 12t87 13q60 11 71.5 41
t-43.5 64q-20 12 -134.5 35t-123.5 43q-9 23 6.5 31.5t60 17t73.5 22.5q28 12 29 41.5t-11 89t-12 102.5q0 92 34 104q24 9 44 -30q5 -11 9 -24q14 -51 22.5 -105.5t5.5 -114t-21 -97.5q89 -25 132 -73t35 -96t-60 -90t-137 -58q-18 -3 -48 -6l-50 -5t-44.5 -8.5
t-39.5 -16.5t-26.5 -29.5t-13.5 -47.5zM178 455q-16 23 -43 19.5t-38.5 -25t3.5 -51.5q19 -30 46 -25.5t36.5 29.5t-4.5 53z" />
    <glyph glyph-name="uniFC42" unicode="&#xfc42;" horiz-adv-x="603" arabic-form="isolated" 
d="M545 586q13 -142 5.5 -221.5t-45.5 -119.5q39 -47 39 -116t-47 -102q-40 -24 -89 -27q-32 -1 -57 -2t-51.5 7.5t-49.5 28.5q-25 20 -60.5 15t-52.5 -31q-19 -25 -8 -59.5t31 -60.5t43 -59.5t26 -55.5q3 -18 -6.5 -32.5t-27.5 -15.5q-9 0 -17 3.5t-15.5 11.5t-11.5 12.5
t-12 16t-9 13.5q-88 123 -79 214q4 45 32.5 75t73.5 35l35 3q3 10 7.5 35.5t9.5 44t14 33.5q24 41 82.5 56.5t117.5 1.5q19 18 32 48q14 33 14.5 77t-6 78.5t-10 66t7 49t40.5 17.5q16 0 29.5 -12t14.5 -28zM395 77q32 2 49 23.5t9 55.5q-10 37 -43 51.5t-68.5 1.5
t-50.5 -48q-15 -37 13 -66q16 -18 42.5 -20.5t48.5 2.5z" />
    <glyph glyph-name="uniFC43" unicode="&#xfc43;" horiz-adv-x="638" arabic-form="isolated" 
d="M573 532q1 -13 5 -41.5t6 -47t3 -46.5t-1 -47.5t-9 -43t-19 -39.5t-32 -30.5t-47 -22.5q-37 -12 -53.5 -40t3.5 -63q8 -11 24.5 -33.5t25.5 -35t18 -33.5t11 -43q6 -44 -26 -79.5t-77 -47.5q-71 -17 -139.5 -3t-128.5 54q-90 60 -87 153q2 33 26.5 49.5t45.5 -8.5
q13 -17 27 -67t40 -69q36 -26 85.5 -34.5t92.5 2.5q20 5 34 19t15 33q0 12 -5.5 25t-11.5 21.5t-18 23t-15 18.5q-39 52 -44 105q-7 67 51 105q21 15 43 24t33.5 12t21.5 10.5t14 22.5t4 45q0 44 -3 83t-3 49q0 63 34 77q26 12 44 -16q11 -16 12 -41z" />
    <glyph glyph-name="uniFC44" unicode="&#xfc44;" horiz-adv-x="638" arabic-form="isolated" 
d="M573 532q1 -13 5 -41.5t6 -47t3 -46.5t-1 -47.5t-9 -43t-19 -39.5t-32 -30.5t-47 -22.5q-37 -12 -53.5 -40t3.5 -63q8 -11 24.5 -33.5t25.5 -35t18 -33.5t11 -43q6 -44 -26 -79.5t-77 -47.5q-71 -17 -139.5 -3t-128.5 54q-90 60 -87 153q2 33 26.5 49.5t45.5 -8.5
q13 -17 27 -67t40 -69q36 -26 85.5 -34.5t92.5 2.5q20 5 34 19t15 33q0 12 -5.5 25t-11.5 21.5t-18 23t-15 18.5q-39 52 -44 105q-7 67 51 105q21 15 43 24t33.5 12t21.5 10.5t14 22.5t4 45q0 44 -3 83t-3 49q0 63 34 77q26 12 44 -16q11 -16 12 -41zM430 -251
q-16 22 -43.5 23.5t-45.5 -12.5q-31 -20 -29 -32q3 -23 43 -38q35 -13 66.5 6.5t8.5 52.5zM316 -238q-15 23 -42.5 21.5t-48 -25t-8.5 -47.5q17 -34 48.5 -35t49 26t1.5 60z" />
    <glyph glyph-name="uniFC4B" unicode="&#xfc4b;" horiz-adv-x="636" arabic-form="isolated" 
d="M165 -183q-4 -37 8.5 -67.5t33.5 -49t49.5 -32t52.5 -19t46 -6.5l11 -1q11 0 15 -0.5t14.5 -1.5t16 -3.5t12 -6t10 -9t3.5 -12.5q1 -21 -14 -39t-34 -19q-81 -4 -155.5 21t-122 71.5t-59.5 111t32 138.5q21 35 44 57.5t56.5 34.5t57.5 17t78 12t87 13q60 11 71.5 41
t-43.5 64q-24 14 -120.5 31.5t-119.5 33.5q-30 23 -16 41.5t50 13.5q16 -2 24.5 -3t24.5 -1.5t24 2.5l20 7.5t17.5 14t10 23t3.5 33.5t-6 46q-9 41 18 52q25 11 47 -18q11 -15 17 -35q11 -41 8 -82.5t-16 -68.5q60 -17 99.5 -44.5t54.5 -57.5t9.5 -62t-29.5 -58t-67.5 -45
t-100.5 -25q-12 -1 -48 -3.5t-51 -4.5t-43 -9t-40.5 -17.5t-25 -30.5t-14.5 -48zM404 560q-16 23 -43 19.5t-38.5 -25t3.5 -51.5q19 -30 46 -25.5t36.5 29.5t-4.5 53zM413 -172q-19 16 -41 18t-35 -16.5t-2 -47.5q15 -39 51 -28q29 9 37 35q6 21 -10 39z" />
    <glyph glyph-name="uniFC4C" unicode="&#xfc4c;" horiz-adv-x="636" arabic-form="isolated" 
d="M165 -183q-4 -37 8.5 -67.5t33.5 -49t49.5 -32t52.5 -19t46 -6.5l11 -1q11 0 15 -0.5t14.5 -1.5t16 -3.5t12 -6t10 -9t3.5 -12.5q1 -21 -14 -39t-34 -19q-81 -4 -155.5 21t-122 71.5t-59.5 111t32 138.5q21 35 44 57.5t56.5 34.5t57.5 17t78 12t87 13q60 11 71.5 41
t-43.5 64q-24 14 -120.5 31.5t-119.5 33.5q-30 23 -16 41.5t50 13.5q16 -2 24.5 -3t24.5 -1.5t24 2.5l20 7.5t17.5 14t10 23t3.5 33.5t-6 46q-9 41 18 52q25 11 47 -18q11 -15 17 -35q11 -41 8 -82.5t-16 -68.5q60 -17 99.5 -44.5t54.5 -57.5t9.5 -62t-29.5 -58t-67.5 -45
t-100.5 -25q-12 -1 -48 -3.5t-51 -4.5t-43 -9t-40.5 -17.5t-25 -30.5t-14.5 -48zM404 560q-16 23 -43 19.5t-38.5 -25t3.5 -51.5q19 -30 46 -25.5t36.5 29.5t-4.5 53z" />
    <glyph glyph-name="uniFC4D" unicode="&#xfc4d;" horiz-adv-x="636" arabic-form="isolated" 
d="M165 -183q-4 -37 8.5 -67.5t33.5 -49t49.5 -32t52.5 -19t46 -6.5l11 -1q11 0 15 -0.5t14.5 -1.5t16 -3.5t12 -6t10 -9t3.5 -12.5q1 -21 -14 -39t-34 -19q-81 -4 -155.5 21t-122 71.5t-59.5 111t32 138.5q21 35 44 57.5t56.5 34.5t57.5 17t78 12t87 13q60 11 71.5 41
t-43.5 64q-24 14 -120.5 31.5t-119.5 33.5q-30 23 -16 41.5t50 13.5q16 -2 24.5 -3t24.5 -1.5t24 2.5l20 7.5t17.5 14t10 23t3.5 33.5t-6 46q-9 41 18 52q25 11 47 -18q11 -15 17 -35q11 -41 8 -82.5t-16 -68.5q60 -17 99.5 -44.5t54.5 -57.5t9.5 -62t-29.5 -58t-67.5 -45
t-100.5 -25q-12 -1 -48 -3.5t-51 -4.5t-43 -9t-40.5 -17.5t-25 -30.5t-14.5 -48zM193 414q-16 23 -43 19.5t-38.5 -25t3.5 -51.5q19 -30 46 -25.5t36.5 29.5t-4.5 53zM404 560q-16 23 -43 19.5t-38.5 -25t3.5 -51.5q19 -30 46 -25.5t36.5 29.5t-4.5 53z" />
    <glyph glyph-name="uniFC55" unicode="&#xfc55;" horiz-adv-x="714" arabic-form="isolated" 
d="M706 321q-14 20 -42.5 22t-47.5 -16t-8 -47q15 -42 56 -36q34 5 47 33q10 22 -5 44zM592 321q-22 16 -53.5 14t-45.5 -19t0 -46q16 -25 44 -27t47 11q28 14 29 33q2 17 -21 34zM446 -180q-19 16 -41 18t-35 -16.5t-2 -47.5q15 -39 51 -28q29 9 37 35q6 21 -10 39z
M165 -183q-4 -37 8.5 -67.5t33.5 -49t49.5 -32t52.5 -19t46 -6.5l11 -1q11 0 15 -0.5t14.5 -1.5t16 -3.5t12 -6t10 -9t3.5 -12.5q1 -21 -14 -39t-34 -19q-81 -4 -155.5 21t-122 71.5t-59.5 111t32 138.5q21 35 44 57.5t56.5 34.5t57.5 17t78 12t87 13q60 11 71.5 41
t-43.5 64q-24 14 -120.5 31.5t-119.5 33.5q-30 23 -16 41.5t50 13.5q16 -2 24.5 -3t24.5 -1.5t24 2.5l20 7.5t17.5 14t10 23t3.5 33.5t-6 46q-9 41 18 52q25 11 47 -18q11 -15 17 -35q11 -41 8 -82.5t-16 -68.5q60 -17 99.5 -44.5t54.5 -57.5t9.5 -62t-29.5 -58t-67.5 -45
t-100.5 -25q-12 -1 -48 -3.5t-51 -4.5t-43 -9t-40.5 -17.5t-25 -30.5t-14.5 -48z" />
    <glyph glyph-name="uniFC56" unicode="&#xfc56;" horiz-adv-x="714" arabic-form="isolated" 
d="M706 321q-14 20 -42.5 22t-47.5 -16t-8 -47q15 -42 56 -36q34 5 47 33q10 22 -5 44zM592 321q-22 16 -53.5 14t-45.5 -19t0 -46q16 -25 44 -27t47 11q28 14 29 33q2 17 -21 34zM165 -183q-4 -37 8.5 -67.5t33.5 -49t49.5 -32t52.5 -19t46 -6.5l11 -1q11 0 15 -0.5
t14.5 -1.5t16 -3.5t12 -6t10 -9t3.5 -12.5q1 -21 -14 -39t-34 -19q-81 -4 -155.5 21t-122 71.5t-59.5 111t32 138.5q21 35 44 57.5t56.5 34.5t57.5 17t78 12t87 13q60 11 71.5 41t-43.5 64q-24 14 -120.5 31.5t-119.5 33.5q-30 23 -16 41.5t50 13.5q16 -2 24.5 -3t24.5 -1.5
t24 2.5l20 7.5t17.5 14t10 23t3.5 33.5t-6 46q-9 41 18 52q25 11 47 -18q11 -15 17 -35q11 -41 8 -82.5t-16 -68.5q60 -17 99.5 -44.5t54.5 -57.5t9.5 -62t-29.5 -58t-67.5 -45t-100.5 -25q-12 -1 -48 -3.5t-51 -4.5t-43 -9t-40.5 -17.5t-25 -30.5t-14.5 -48z" />
    <glyph glyph-name="uniFC57" unicode="&#xfc57;" horiz-adv-x="714" arabic-form="isolated" 
d="M706 321q-14 20 -42.5 22t-47.5 -16t-8 -47q15 -42 56 -36q34 5 47 33q10 22 -5 44zM592 321q-22 16 -53.5 14t-45.5 -19t0 -46q16 -25 44 -27t47 11q28 14 29 33q2 17 -21 34zM210 415q-16 23 -43 19.5t-38.5 -25t3.5 -51.5q19 -30 46 -25.5t36.5 29.5t-4.5 53z
M165 -183q-4 -37 8.5 -67.5t33.5 -49t49.5 -32t52.5 -19t46 -6.5l11 -1q11 0 15 -0.5t14.5 -1.5t16 -3.5t12 -6t10 -9t3.5 -12.5q1 -21 -14 -39t-34 -19q-81 -4 -155.5 21t-122 71.5t-59.5 111t32 138.5q21 35 44 57.5t56.5 34.5t57.5 17t78 12t87 13q60 11 71.5 41
t-43.5 64q-24 14 -120.5 31.5t-119.5 33.5q-30 23 -16 41.5t50 13.5q16 -2 24.5 -3t24.5 -1.5t24 2.5l20 7.5t17.5 14t10 23t3.5 33.5t-6 46q-9 41 18 52q25 11 47 -18q11 -15 17 -35q11 -41 8 -82.5t-16 -68.5q60 -17 99.5 -44.5t54.5 -57.5t9.5 -62t-29.5 -58t-67.5 -45
t-100.5 -25q-12 -1 -48 -3.5t-51 -4.5t-43 -9t-40.5 -17.5t-25 -30.5t-14.5 -48z" />
    <glyph glyph-name="uniFC86" unicode="&#xfc86;" horiz-adv-x="693" arabic-form="final" 
d="M621 156q4 -27 11 -43.5t19.5 -22.5t19.5 -7t22 -1v-82q-102 0 -133.5 48t-30.5 187q-28 -6 -50.5 -15t-43 -24.5t-21 -36t14.5 -48.5q8 -11 24.5 -33.5t25.5 -35t18 -33.5t11 -43q6 -44 -26 -79.5t-77 -47.5q-71 -17 -139.5 -3t-128.5 54q-90 60 -87 153q2 33 26.5 49.5
t45.5 -8.5q13 -17 27 -67t40 -69q36 -26 85.5 -34.5t92.5 2.5q20 5 34 19t15 33q0 12 -5.5 25t-11.5 21.5t-18 23t-15 18.5q-39 52 -44 105q-7 67 55 109t153 46q6 237 6 240q1 18 13 29t26.5 12t27.5 -8.5t16 -28.5q3 -20 -2 -177.5t4 -226.5z" />
    <glyph glyph-name="uniFC87" unicode="&#xfc87;" horiz-adv-x="693" arabic-form="final" 
d="M405 -245q-16 22 -43.5 23.5t-45.5 -12.5q-31 -20 -29 -32q3 -23 43 -38q35 -13 66.5 6.5t8.5 52.5zM291 -232q-15 23 -42.5 21.5t-48 -25t-8.5 -47.5q17 -34 48.5 -35t49 26t1.5 60zM621 156q4 -27 11 -43.5t19.5 -22.5t19.5 -7t22 -1v-82q-102 0 -133.5 48t-30.5 187
q-28 -6 -50.5 -15t-43 -24.5t-21 -36t14.5 -48.5q8 -11 24.5 -33.5t25.5 -35t18 -33.5t11 -43q6 -44 -26 -79.5t-77 -47.5q-71 -17 -139.5 -3t-128.5 54q-90 60 -87 153q2 33 26.5 49.5t45.5 -8.5q13 -17 27 -67t40 -69q36 -26 85.5 -34.5t92.5 2.5q20 5 34 19t15 33
q0 12 -5.5 25t-11.5 21.5t-18 23t-15 18.5q-39 52 -44 105q-7 67 55 109t153 46q6 237 6 240q1 18 13 29t26.5 12t27.5 -8.5t16 -28.5q3 -20 -2 -177.5t4 -226.5z" />
    <glyph glyph-name="uniFC97" unicode="&#xfc97;" horiz-adv-x="480" arabic-form="initial" 
d="M356 601q-3 -19 -97.5 -30.5t-110.5 0.5q-11 10 -8 25.5t16 20.5q15 7 32 11q10 2 11.5 5.5t-0.5 25.5q-1 14 -2 23q-3 47 35 69t66 -4q10 -9 6.5 -21.5t-17.5 -17.5q-21 -6 -29 -17.5t-2.5 -24t21.5 -24.5q6 -3 28.5 -6t38 -10.5t12.5 -24.5zM234 -58q-19 16 -41 18
t-35 -16.5t-2 -47.5q15 -39 51 -28q29 9 37 35q6 21 -10 39zM254 290q39 -13 58 -19.5t48.5 -21t42.5 -28.5t21.5 -37t3.5 -50q-5 -30 -20 -52.5t-43.5 -36.5t-59.5 -23t-83.5 -13.5t-99 -6t-121.5 -2.5q-51 0 -51 41t50 41q176 -1 216 3q101 11 101 60q0 21 -62.5 43.5
t-128 47t-70.5 48.5q-6 25 4 37.5t39 12t76 -16.5q18 -6 27.5 0t11.5 22t1.5 32t-3 39t-2.5 33q0 49 19.5 66.5t41 -1.5t26.5 -59q11 -55 4 -96.5t-47 -62.5z" />
    <glyph glyph-name="uniFC98" unicode="&#xfc98;" horiz-adv-x="480" arabic-form="initial" 
d="M356 601q-3 -19 -97.5 -30.5t-110.5 0.5q-11 10 -8 25.5t16 20.5q15 7 32 11q10 2 11.5 5.5t-0.5 25.5q-1 14 -2 23q-3 47 35 69t66 -4q10 -9 6.5 -21.5t-17.5 -17.5q-21 -6 -29 -17.5t-2.5 -24t21.5 -24.5q6 -3 28.5 -6t38 -10.5t12.5 -24.5zM254 290q39 -13 58 -19.5
t48.5 -21t42.5 -28.5t21.5 -37t3.5 -50q-5 -30 -20 -52.5t-43.5 -36.5t-59.5 -23t-83.5 -13.5t-99 -6t-121.5 -2.5q-51 0 -51 41t50 41q176 -1 216 3q101 11 101 60q0 21 -62.5 43.5t-128 47t-70.5 48.5q-6 25 4 37.5t39 12t76 -16.5q18 -6 27.5 0t11.5 22t1.5 32t-3 39
t-2.5 33q0 49 19.5 66.5t41 -1.5t26.5 -59q11 -55 4 -96.5t-47 -62.5z" />
    <glyph glyph-name="uniFC99" unicode="&#xfc99;" horiz-adv-x="480" arabic-form="initial" 
d="M356 601q-3 -19 -97.5 -30.5t-110.5 0.5q-11 10 -8 25.5t16 20.5q15 7 32 11q10 2 11.5 5.5t-0.5 25.5q-1 14 -2 23q-3 47 35 69t66 -4q10 -9 6.5 -21.5t-17.5 -17.5q-21 -6 -29 -17.5t-2.5 -24t21.5 -24.5q6 -3 28.5 -6t38 -10.5t12.5 -24.5zM85 514q-16 23 -43 19.5
t-38.5 -25t3.5 -51.5q19 -30 46 -25.5t36.5 29.5t-4.5 53zM254 290q39 -13 58 -19.5t48.5 -21t42.5 -28.5t21.5 -37t3.5 -50q-5 -30 -20 -52.5t-43.5 -36.5t-59.5 -23t-83.5 -13.5t-99 -6t-121.5 -2.5q-51 0 -51 41t50 41q176 -1 216 3q101 11 101 60q0 21 -62.5 43.5
t-128 47t-70.5 48.5q-6 25 4 37.5t39 12t76 -16.5q18 -6 27.5 0t11.5 22t1.5 32t-3 39t-2.5 33q0 49 19.5 66.5t41 -1.5t26.5 -59q11 -55 4 -96.5t-47 -62.5z" />
    <glyph glyph-name="uniFC9C" unicode="&#xfc9c;" horiz-adv-x="480" arabic-form="initial" 
d="M433 379q-19 16 -41 18t-35 -16.5t-2 -47.5q15 -39 51 -28q29 9 37 35q6 21 -10 39zM228 -61q-19 16 -41 18t-35 -16.5t-2 -47.5q15 -39 51 -28q29 9 37 35q6 21 -10 39zM254 290q39 -13 58 -19.5t48.5 -21t42.5 -28.5t21.5 -37t3.5 -50q-5 -30 -20 -52.5t-43.5 -36.5
t-59.5 -23t-83.5 -13.5t-99 -6t-121.5 -2.5q-51 0 -51 41t50 41q176 -1 216 3q101 11 101 60q0 21 -62.5 43.5t-128 47t-70.5 48.5q-6 25 4 37.5t39 12t76 -16.5q18 -6 27.5 0t11.5 22t1.5 32t-3 39t-2.5 33q0 49 19.5 66.5t41 -1.5t26.5 -59q11 -55 4 -96.5t-47 -62.5z" />
    <glyph glyph-name="uniFC9D" unicode="&#xfc9d;" horiz-adv-x="480" arabic-form="initial" 
d="M433 379q-19 16 -41 18t-35 -16.5t-2 -47.5q15 -39 51 -28q29 9 37 35q6 21 -10 39zM254 290q39 -13 58 -19.5t48.5 -21t42.5 -28.5t21.5 -37t3.5 -50q-5 -30 -20 -52.5t-43.5 -36.5t-59.5 -23t-83.5 -13.5t-99 -6t-121.5 -2.5q-51 0 -51 41t50 41q176 -1 216 3
q101 11 101 60q0 21 -62.5 43.5t-128 47t-70.5 48.5q-6 25 4 37.5t39 12t76 -16.5q18 -6 27.5 0t11.5 22t1.5 32t-3 39t-2.5 33q0 49 19.5 66.5t41 -1.5t26.5 -59q11 -55 4 -96.5t-47 -62.5z" />
    <glyph glyph-name="uniFC9E" unicode="&#xfc9e;" horiz-adv-x="480" arabic-form="initial" 
d="M433 379q-19 16 -41 18t-35 -16.5t-2 -47.5q15 -39 51 -28q29 9 37 35q6 21 -10 39zM254 290q39 -13 58 -19.5t48.5 -21t42.5 -28.5t21.5 -37t3.5 -50q-5 -30 -20 -52.5t-43.5 -36.5t-59.5 -23t-83.5 -13.5t-99 -6t-121.5 -2.5q-51 0 -51 41t50 41q176 -1 216 3
q101 11 101 60q0 21 -62.5 43.5t-128 47t-70.5 48.5q-6 25 4 37.5t39 12t76 -16.5q18 -6 27.5 0t11.5 22t1.5 32t-3 39t-2.5 33q0 49 19.5 66.5t41 -1.5t26.5 -59q11 -55 4 -96.5t-47 -62.5zM100 495q-16 23 -43 19.5t-38.5 -25t3.5 -51.5q19 -30 46 -25.5t36.5 29.5
t-4.5 53z" />
    <glyph glyph-name="teh_jeemar.init" unicode="&#xfca1;" horiz-adv-x="480" arabic-form="initial" 
d="M343 638q-14 20 -42.5 22t-47.5 -16t-8 -47q15 -42 56 -36q34 5 47 33q9 23 -5 44zM229 638q-22 16 -53.5 14t-45.5 -19t0 -46q16 -25 44 -27t47 11q28 14 29 33q2 17 -21 34zM228 -61q-19 16 -41 18t-35 -16.5t-2 -47.5q15 -39 51 -28q29 9 37 35q6 21 -10 39zM254 290
q39 -13 58 -19.5t48.5 -21t42.5 -28.5t21.5 -37t3.5 -50q-5 -30 -20 -52.5t-43.5 -36.5t-59.5 -23t-83.5 -13.5t-99 -6t-121.5 -2.5q-51 0 -51 41t50 41q176 -1 216 3q101 11 101 60q0 21 -62.5 43.5t-128 47t-70.5 48.5q-6 25 4 37.5t39 12t76 -16.5q18 -6 27.5 0t11.5 22
t1.5 32t-3 39t-2.5 33q0 49 19.5 66.5t41 -1.5t26.5 -59q11 -55 4 -96.5t-47 -62.5z" />
    <glyph glyph-name="teh_hahar.init" unicode="&#xfca2;" horiz-adv-x="480" arabic-form="initial" 
d="M343 638q-14 20 -42.5 22t-47.5 -16t-8 -47q15 -42 56 -36q34 5 47 33q9 23 -5 44zM229 638q-22 16 -53.5 14t-45.5 -19t0 -46q16 -25 44 -27t47 11q28 14 29 33q2 17 -21 34zM254 290q39 -13 58 -19.5t48.5 -21t42.5 -28.5t21.5 -37t3.5 -50q-5 -30 -20 -52.5
t-43.5 -36.5t-59.5 -23t-83.5 -13.5t-99 -6t-121.5 -2.5q-51 0 -51 41t50 41q176 -1 216 3q101 11 101 60q0 21 -62.5 43.5t-128 47t-70.5 48.5q-6 25 4 37.5t39 12t76 -16.5q18 -6 27.5 0t11.5 22t1.5 32t-3 39t-2.5 33q0 49 19.5 66.5t41 -1.5t26.5 -59q11 -55 4 -96.5
t-47 -62.5z" />
    <glyph glyph-name="uniFCA3" unicode="&#xfca3;" horiz-adv-x="480" arabic-form="initial" 
d="M343 638q-14 20 -42.5 22t-47.5 -16t-8 -47q15 -42 56 -36q34 5 47 33q9 23 -5 44zM229 638q-22 16 -53.5 14t-45.5 -19t0 -46q16 -25 44 -27t47 11q28 14 29 33q2 17 -21 34zM254 290q39 -13 58 -19.5t48.5 -21t42.5 -28.5t21.5 -37t3.5 -50q-5 -30 -20 -52.5
t-43.5 -36.5t-59.5 -23t-83.5 -13.5t-99 -6t-121.5 -2.5q-51 0 -51 41t50 41q176 -1 216 3q101 11 101 60q0 21 -62.5 43.5t-128 47t-70.5 48.5q-6 25 4 37.5t39 12t76 -16.5q18 -6 27.5 0t11.5 22t1.5 32t-3 39t-2.5 33q0 49 19.5 66.5t41 -1.5t26.5 -59q11 -55 4 -96.5
t-47 -62.5zM100 495q-16 23 -43 19.5t-38.5 -25t3.5 -51.5q19 -30 46 -25.5t36.5 29.5t-4.5 53z" />
    <glyph glyph-name="lam_jeemar.init" unicode="&#xfcc9;" horiz-adv-x="500" arabic-form="initial" 
d="M256 -61q-19 16 -41 18t-35 -16.5t-2 -47.5q15 -39 51 -28q29 9 37 35q6 21 -10 39zM269 292l58.5 -19.5t49.5 -21.5t44 -29.5t23 -37.5t4 -50q-6 -36 -31 -61t-59 -39t-95.5 -21.5t-116 -9.5t-145.5 -3q-51 0 -51 41t50 41q71 0 124.5 2t110.5 9.5t88 25t31 43.5
q0 28 -45 46t-99 24.5t-102 19.5t-52 32q-4 8 -1.5 15.5t2.5 12t7 8.5t12 6t16.5 5t20.5 5t24.5 5.5t28.5 6.5q16 4 26.5 11.5t15.5 19.5t6.5 24t-1 32.5t-5.5 37t-8 45t-8 50.5q-10 69 21 91q25 17 51 -14q8 -11 15 -27q37 -88 35 -178t-45 -148z" />
    <glyph glyph-name="lam_hahar.init" unicode="&#xfcca;" horiz-adv-x="507" arabic-form="initial" 
d="M269 292l58.5 -19.5t49.5 -21.5t44 -29.5t23 -37.5t4 -50q-6 -36 -31 -61t-59 -39t-95.5 -21.5t-116 -9.5t-145.5 -3q-51 0 -51 41t50 41q71 0 124.5 2t110.5 9.5t88 25t31 43.5q0 28 -45 46t-99 24.5t-102 19.5t-52 32q-4 8 -1.5 15.5t2.5 12t7 8.5t12 6t16.5 5t20.5 5
t24.5 5.5t28.5 6.5q16 4 26.5 11.5t15.5 19.5t6.5 24t-1 32.5t-5.5 37t-8 45t-8 50.5q-10 69 21 91q25 17 51 -14q8 -11 15 -27q37 -88 35 -178t-45 -148z" />
    <glyph glyph-name="lam_khahar.init" unicode="&#xfccb;" horiz-adv-x="507" arabic-form="initial" 
d="M269 292l58.5 -19.5t49.5 -21.5t44 -29.5t23 -37.5t4 -50q-6 -36 -31 -61t-59 -39t-95.5 -21.5t-116 -9.5t-145.5 -3q-51 0 -51 41t50 41q71 0 124.5 2t110.5 9.5t88 25t31 43.5q0 28 -45 46t-99 24.5t-102 19.5t-52 32q-4 8 -1.5 15.5t2.5 12t7 8.5t12 6t16.5 5t20.5 5
t24.5 5.5t28.5 6.5q16 4 26.5 11.5t15.5 19.5t6.5 24t-1 32.5t-5.5 37t-8 45t-8 50.5q-10 69 21 91q25 17 51 -14q8 -11 15 -27q37 -88 35 -178t-45 -148zM83 504q-16 23 -43 19.5t-38.5 -25t3.5 -51.5q19 -30 46 -25.5t36.5 29.5t-4.5 53z" />
    <glyph glyph-name="lam_meemar.init" unicode="&#xfccc;" horiz-adv-x="405" arabic-form="initial" 
d="M305 227q50 -52 50 -131q0 -89 -53 -126q-27 -17 -76 -19.5t-78 9.5q-24 9 -43 19t-25.5 13t-22 5.5t-45.5 2.5h-12q-50 0 -50 41t50 41q16 0 26 11.5t19 49.5q12 49 51 90q42 41 106 39q21 -2 40 -6q12 15 12 53q0 27 -2 52.5t-3.5 39.5t-7 47t-7.5 49q-9 62 27 89
q25 19 45 0q14 -12 15 -39q15 -178 1 -302q-5 -42 -12 -39q-2 1 -5 11zM251 47q22 61 -13 118q-31 50 -75 25q-36 -21 -46 -68q-12 -60 40 -89q16 -9 39 -14q40 -9 55 28z" />
    <glyph glyph-name="uniFCD2" unicode="&#xfcd2;" horiz-adv-x="480" arabic-form="initial" 
d="M254 290q39 -13 58 -19.5t48.5 -21t42.5 -28.5t21.5 -37t3.5 -50q-5 -30 -20 -52.5t-43.5 -36.5t-59.5 -23t-83.5 -13.5t-99 -6t-121.5 -2.5q-51 0 -51 41t50 41q176 -1 216 3q101 11 101 60q0 21 -62.5 43.5t-128 47t-70.5 48.5q-6 25 4 37.5t39 12t76 -16.5
q18 -6 27.5 0t11.5 22t1.5 32t-3 39t-2.5 33q0 49 19.5 66.5t41 -1.5t26.5 -59q11 -55 4 -96.5t-47 -62.5zM284 650q-16 23 -43 19.5t-38.5 -25t3.5 -51.5q19 -30 46 -25.5t36.5 29.5t-4.5 53zM267 -57q-19 16 -41 18t-35 -16.5t-2 -47.5q15 -39 51 -28q29 9 37 35
q6 21 -10 39z" />
    <glyph glyph-name="uniFCD3" unicode="&#xfcd3;" horiz-adv-x="480" arabic-form="initial" 
d="M254 290q39 -13 58 -19.5t48.5 -21t42.5 -28.5t21.5 -37t3.5 -50q-5 -30 -20 -52.5t-43.5 -36.5t-59.5 -23t-83.5 -13.5t-99 -6t-121.5 -2.5q-51 0 -51 41t50 41q176 -1 216 3q101 11 101 60q0 21 -62.5 43.5t-128 47t-70.5 48.5q-6 25 4 37.5t39 12t76 -16.5
q18 -6 27.5 0t11.5 22t1.5 32t-3 39t-2.5 33q0 49 19.5 66.5t41 -1.5t26.5 -59q11 -55 4 -96.5t-47 -62.5zM284 650q-16 23 -43 19.5t-38.5 -25t3.5 -51.5q19 -30 46 -25.5t36.5 29.5t-4.5 53z" />
    <glyph glyph-name="uniFCD4" unicode="&#xfcd4;" horiz-adv-x="480" arabic-form="initial" 
d="M254 290q39 -13 58 -19.5t48.5 -21t42.5 -28.5t21.5 -37t3.5 -50q-5 -30 -20 -52.5t-43.5 -36.5t-59.5 -23t-83.5 -13.5t-99 -6t-121.5 -2.5q-51 0 -51 41t50 41q176 -1 216 3q101 11 101 60q0 21 -62.5 43.5t-128 47t-70.5 48.5q-6 25 4 37.5t39 12t76 -16.5
q18 -6 27.5 0t11.5 22t1.5 32t-3 39t-2.5 33q0 49 19.5 66.5t41 -1.5t26.5 -59q11 -55 4 -96.5t-47 -62.5zM284 650q-16 23 -43 19.5t-38.5 -25t3.5 -51.5q19 -30 46 -25.5t36.5 29.5t-4.5 53zM86 493q-16 23 -43 19.5t-38.5 -25t3.5 -51.5q19 -30 46 -25.5t36.5 29.5
t-4.5 53z" />
    <glyph glyph-name="uniFCDA" unicode="&#xfcda;" horiz-adv-x="576" arabic-form="initial" 
d="M567 365q-14 20 -42.5 22t-47.5 -16t-8 -47q15 -42 56 -36q34 5 47 33q10 22 -5 44zM453 365q-22 16 -53.5 14t-45.5 -19t0 -46q16 -25 44 -27t47 11q28 14 29 33q2 17 -21 34zM234 -58q-19 16 -41 18t-35 -16.5t-2 -47.5q15 -39 51 -28q29 9 37 35q6 21 -10 39zM254 290
q39 -13 58 -19.5t48.5 -21t42.5 -28.5t21.5 -37t3.5 -50q-5 -30 -20 -52.5t-43.5 -36.5t-59.5 -23t-83.5 -13.5t-99 -6t-121.5 -2.5q-51 0 -51 41t50 41q176 -1 216 3q101 11 101 60q0 21 -62.5 43.5t-128 47t-70.5 48.5q-6 25 4 37.5t39 12t76 -16.5q18 -6 27.5 0t11.5 22
t1.5 32t-3 39t-2.5 33q0 49 19.5 66.5t41 -1.5t26.5 -59q11 -55 4 -96.5t-47 -62.5z" />
    <glyph glyph-name="uniFCDB" unicode="&#xfcdb;" horiz-adv-x="576" arabic-form="initial" 
d="M567 365q-14 20 -42.5 22t-47.5 -16t-8 -47q15 -42 56 -36q34 5 47 33q10 22 -5 44zM453 365q-22 16 -53.5 14t-45.5 -19t0 -46q16 -25 44 -27t47 11q28 14 29 33q2 17 -21 34zM254 290q39 -13 58 -19.5t48.5 -21t42.5 -28.5t21.5 -37t3.5 -50q-5 -30 -20 -52.5
t-43.5 -36.5t-59.5 -23t-83.5 -13.5t-99 -6t-121.5 -2.5q-51 0 -51 41t50 41q176 -1 216 3q101 11 101 60q0 21 -62.5 43.5t-128 47t-70.5 48.5q-6 25 4 37.5t39 12t76 -16.5q18 -6 27.5 0t11.5 22t1.5 32t-3 39t-2.5 33q0 49 19.5 66.5t41 -1.5t26.5 -59q11 -55 4 -96.5
t-47 -62.5z" />
    <glyph glyph-name="uniFCDC" unicode="&#xfcdc;" horiz-adv-x="576" arabic-form="initial" 
d="M567 365q-14 20 -42.5 22t-47.5 -16t-8 -47q15 -42 56 -36q34 5 47 33q10 22 -5 44zM453 365q-22 16 -53.5 14t-45.5 -19t0 -46q16 -25 44 -27t47 11q28 14 29 33q2 17 -21 34zM92 505q-16 23 -43 19.5t-38.5 -25t3.5 -51.5q19 -30 46 -25.5t36.5 29.5t-4.5 53zM254 290
q39 -13 58 -19.5t48.5 -21t42.5 -28.5t21.5 -37t3.5 -50q-5 -30 -20 -52.5t-43.5 -36.5t-59.5 -23t-83.5 -13.5t-99 -6t-121.5 -2.5q-51 0 -51 41t50 41q176 -1 216 3q101 11 101 60q0 21 -62.5 43.5t-128 47t-70.5 48.5q-6 25 4 37.5t39 12t76 -16.5q18 -6 27.5 0t11.5 22
t1.5 32t-3 39t-2.5 33q0 49 19.5 66.5t41 -1.5t26.5 -59q11 -55 4 -96.5t-47 -62.5z" />
    <glyph glyph-name="alefMaddaar.fina" unicode="&#x622;" horiz-adv-x="216" arabic-form="final" 
d="M216 82v-82q-73 0 -109 26q-51 36 -56 119v54q8 354 8 357q1 18 13 29t26.5 12t27.5 -8.5t16 -28.5q3 -20 -2 -177.5t4 -226.5q4 -27 11 -43.5t19.5 -22.5t19.5 -7t22 -1zM107 657q31 -15 63 -6q9 3 17.5 7t17.5 10t14.5 10t16 12.5t13.5 11.5q13 11 20 34.5t-1 41.5
t-34 12q-13 -3 -33.5 -30.5t-30.5 -34.5q-19 -10 -37.5 -3t-32 20.5t-33.5 19.5t-40 -7q-38 -23 -67.5 -60t-5.5 -55q14 -11 24 -1.5t16.5 26.5t22.5 25.5t41 -3.5q1 -1 21 -13.5t28 -16.5z" />
    <glyph glyph-name="alefHamzaabovear.fina" unicode="&#x623;" horiz-adv-x="216" arabic-form="final" 
d="M216 82v-82q-73 0 -109 26q-51 36 -56 119v54q8 354 8 357q1 18 13 29t26.5 12t27.5 -8.5t16 -28.5q3 -20 -2 -177.5t4 -226.5q4 -27 11 -43.5t19.5 -22.5t19.5 -7t22 -1zM209 679q-3 -19 -97.5 -30.5t-110.5 0.5q-11 10 -8 25.5t16 20.5q15 7 32 11q10 2 11.5 5.5
t-0.5 25.5q-1 14 -2 23q-3 47 35 69t66 -4q10 -9 6.5 -21.5t-17.5 -17.5q-21 -6 -29 -17.5t-2.5 -24t21.5 -24.5q6 -3 28.5 -6t38 -10.5t12.5 -24.5z" />
    <glyph glyph-name="wawHamzaabovear.fina" unicode="&#x624;" horiz-adv-x="433" arabic-form="final" 
d="M276 0q-15 -7 -53 -7q-39 0 -68.5 19t-40.5 48t-9.5 59.5t23.5 57t59 37.5q73 22 120.5 -13.5t62.5 -118.5h63v-82h-50q-9 -113 -42.5 -163t-129.5 -55q-103 -6 -149 45q-20 22 -8 40t40 16q54 -4 96.5 -2.5t67 30.5t18.5 89zM278 87q-24 37 -53 38q-24 1 -22 -29
q1 -7 3 -15q9 0 32.5 2.5t39.5 3.5zM271 302q-3 -19 -97.5 -30.5t-110.5 0.5q-11 10 -8 25.5t16 20.5q15 7 32 11q10 2 11.5 5.5t-0.5 25.5q-1 4 -1 6.5t-0.5 7.5t-0.5 9q-3 47 35 69t66 -4q10 -9 6.5 -21.5t-17.5 -17.5q-21 -6 -29 -17.5t-2.5 -24t21.5 -24.5q6 -3 28.5 -6
t38 -10.5t12.5 -24.5z" />
    <glyph glyph-name="alefHamzabelowar.fina" unicode="&#x625;" horiz-adv-x="216" arabic-form="final" 
d="M216 82v-82q-73 0 -109 26q-51 36 -56 119v54q8 354 8 357q1 18 13 29t26.5 12t27.5 -8.5t16 -28.5q3 -20 -2 -177.5t4 -226.5q4 -27 11 -43.5t19.5 -22.5t19.5 -7t22 -1zM209 -209q-3 -19 -97.5 -30.5t-110.5 0.5q-11 10 -8 25.5t16 20.5q15 7 32 11q10 2 11.5 5.5
t-0.5 25.5q-1 14 -2 23q-3 47 35 69t66 -4q10 -9 6.5 -21.5t-17.5 -17.5q-21 -6 -29 -17.5t-2.5 -24t21.5 -24.5q6 -3 28.5 -6t38 -10.5t12.5 -24.5z" />
    <glyph glyph-name="yehHamzaabovear.fina" unicode="&#x626;" horiz-adv-x="551" arabic-form="final" 
d="M550 82v-82h-20q19 -37 -7.5 -98t-91.5 -83q-50 -15 -125.5 -13t-125.5 19q-41 13 -75.5 50t-47.5 78q-15 46 2.5 93t56.5 82q16 13 33 4q19 -13 18 -32t-15 -60t-13 -64q1 -31 29.5 -52t67 -27.5t78 -8.5t63.5 5q55 14 69 43q16 32 -50 85q-5 4 -16 11.5t-16 13t-9 15.5
q-9 26 17 32q12 3 29 1q111 -12 149 -12zM258 218q-3 -19 -97.5 -30.5t-110.5 0.5q-11 10 -8 25.5t16 20.5q15 7 32 11q10 2 11.5 5.5t-0.5 25.5q-1 4 -1 6.5t-0.5 7.5t-0.5 9q-3 47 35 69t66 -4q10 -9 6.5 -21.5t-17.5 -17.5q-21 -6 -29 -17.5t-2.5 -24t21.5 -24.5
q6 -3 28.5 -6t38 -10.5t12.5 -24.5z" />
    <glyph glyph-name="yehHamzaabovear.init" unicode="&#x626;" horiz-adv-x="223" arabic-form="initial" 
d="M56 0h-55q-18 0 -34.5 12t-16.5 29q0 18 14 29.5t36 11.5h11h14.5t15 1t16.5 3t14.5 6.5t12.5 10.5t7.5 15.5t3.5 21.5t-2.5 32.5t-2.5 28.5q-1 13 0 26q5 32 36 35.5t36 -27.5q7 -41 10 -72t-0.5 -63t-15.5 -53t-37 -34t-63 -13zM219 347q-3 -19 -97.5 -30.5t-110.5 0.5
q-11 10 -8 25.5t16 20.5q15 7 32 11q10 2 11.5 5.5t-0.5 25.5q-1 4 -1 6.5t-0.5 7.5t-0.5 9q-3 47 35 69t66 -4q10 -9 6.5 -21.5t-17.5 -17.5q-21 -6 -29 -17.5t-2.5 -24t21.5 -24.5q6 -3 28.5 -6t38 -10.5t12.5 -24.5z" />
    <glyph glyph-name="yehHamzaabovear.medi" unicode="&#x626;" horiz-adv-x="249" arabic-form="medial" 
d="M0 0q-22 0 -36 11.5t-14 29.5t14 29.5t36 11.5h18t19.5 2t23 8t18 15t15 26t4.5 40q0 21 1 32q2 20 4 25q4 17 15.5 28t22.5 10q25 -2 33 -38q3 -15 6.5 -40.5t7 -41t10 -32.5t19.5 -25t32 -9v-82q-40 0 -63 8t-51 33q-52 -41 -135 -41zM232 347q-3 -19 -97.5 -30.5
t-110.5 0.5q-11 10 -8 25.5t16 20.5q15 7 32 11q10 2 11.5 5.5t-0.5 25.5q-1 4 -1 6.5t-0.5 7.5t-0.5 9q-3 47 35 69t66 -4q10 -9 6.5 -21.5t-17.5 -17.5q-21 -6 -29 -17.5t-2.5 -24t21.5 -24.5q6 -3 28.5 -6t38 -10.5t12.5 -24.5z" />
    <glyph glyph-name="uniFE8E" unicode="&#x627;" horiz-adv-x="216" arabic-form="final" 
d="M216 82v-82q-73 0 -109 26q-51 36 -56 119v54q8 354 8 357q1 18 13 29t26.5 12t27.5 -8.5t16 -28.5q3 -20 -2 -177.5t4 -226.5q4 -27 11 -43.5t19.5 -22.5t19.5 -7t22 -1z" />
    <glyph glyph-name="behar.fina" unicode="&#x628;" horiz-adv-x="806" arabic-form="final" 
d="M606 105q43 5 47.5 26.5t-9.5 83.5q-10 60 23 84q28 20 51 -5q16 -17 21 -50q3 -20 5 -37.5t3.5 -39t3.5 -38.5q5 -47 53 -47h2v-82h-40q-11 0 -20.5 1.5t-15.5 3t-14 5.5t-10 5.5t-10 6.5l-8 6q-104 -28 -334 -27q-40 0 -75 3t-70.5 10t-63.5 17.5t-50.5 28t-33.5 40
t-11 53.5t14 69q3 8 8.5 23.5t8.5 24t8.5 20.5t10.5 17.5t12 10.5t15.5 5t18.5 -5q27 -13 20 -45q-4 -23 -16 -67q-11 -35 5 -60t53.5 -37t84 -18t105 -4t107.5 6.5t101 11.5zM432 -68q-19 16 -41 18t-35 -16.5t-2 -47.5q15 -39 51 -28q29 9 37 35q6 21 -10 39z" />
    <glyph glyph-name="behar.init" unicode="&#x628;" horiz-adv-x="223" arabic-form="initial" 
d="M56 0h-55q-18 0 -34.5 12t-16.5 29q0 18 14 29.5t36 11.5h11h14.5t15 1t16.5 3t14.5 6.5t12.5 10.5t7.5 15.5t3.5 21.5t-2.5 32.5t-2.5 28.5q-1 13 0 26q5 32 36 35.5t36 -27.5q7 -41 10 -72t-0.5 -63t-15.5 -53t-37 -34t-63 -13zM168 -68q-19 16 -41 18t-35 -16.5
t-2 -47.5q15 -39 51 -28q29 9 37 35q6 21 -10 39z" />
    <glyph glyph-name="behar.medi" unicode="&#x628;" horiz-adv-x="249" arabic-form="medial" 
d="M0 0q-22 0 -36 11.5t-14 29.5t14 29.5t36 11.5h18t19.5 2t23 8t18 15t15 26t4.5 40q0 21 1 32q2 20 4 25q4 17 15.5 28t22.5 10q25 -2 33 -38q3 -15 6.5 -40.5t7 -41t10 -32.5t19.5 -25t32 -9v-82q-40 0 -63 8t-51 33q-52 -41 -135 -41zM148 -68q-19 16 -41 18t-35 -16.5
t-2 -47.5q15 -39 51 -28q29 9 37 35q6 21 -10 39z" />
    <glyph glyph-name="tehMarbutaar.fina" unicode="&#x629;" horiz-adv-x="482" arabic-form="final" 
d="M482 82v-82q-38 0 -59 0.5t-47 3t-39 8t-27 15t-20.5 24t-10.5 35t-4 48.5q-55 -12 -102.5 -11.5t-82 24.5t-40.5 67q-8 66 69 122.5t150 66.5q28 4 50 -12.5t29 -45.5q3 -12 6.5 -44t3.5 -34q34 13 48 17q29 11 31 -16q2 -32 -28 -63q-13 -14 -29 -21l-17 -9v-25
q0 -16 2.5 -25t12.5 -20.5t36 -17t68 -5.5zM270 291q-88 -6 -117 -46q-20 -26 3 -40q30 -20 101 9q16 7 18 34t-5 43zM314 534q-14 20 -42.5 22t-47.5 -16t-8 -47q15 -42 56 -36q34 5 47 33q10 22 -5 44zM200 534q-22 16 -53.5 14t-45.5 -19t0 -46q16 -25 44 -27t47 11
q28 14 29 33q2 17 -21 34z" />
    <glyph glyph-name="tehar.fina" unicode="&#x62a;" horiz-adv-x="806" arabic-form="final" 
d="M606 105q43 5 47.5 26.5t-9.5 83.5q-10 60 23 84q28 20 51 -5q16 -17 21 -50q3 -20 5 -37.5t3.5 -39t3.5 -38.5q5 -47 53 -47h2v-82h-40q-11 0 -20.5 1.5t-15.5 3t-14 5.5t-10 5.5t-10 6.5l-8 6q-104 -28 -334 -27q-40 0 -75 3t-70.5 10t-63.5 17.5t-50.5 28t-33.5 40
t-11 53.5t14 69q3 8 8.5 23.5t8.5 24t8.5 20.5t10.5 17.5t12 10.5t15.5 5t18.5 -5q27 -13 20 -45q-4 -23 -16 -67q-11 -35 5 -60t53.5 -37t84 -18t105 -4t107.5 6.5t101 11.5zM535 482q-14 20 -42.5 22t-47.5 -16t-8 -47q15 -42 56 -36q34 5 47 33q10 22 -5 44zM421 482
q-22 16 -53.5 14t-45.5 -19t0 -46q16 -25 44 -27t47 11q28 14 29 33q2 17 -21 34z" />
    <glyph glyph-name="tehar.init" unicode="&#x62a;" horiz-adv-x="253" arabic-form="initial" 
d="M86 0h-85q-18 0 -34.5 12t-16.5 29q0 18 14 29.5t36 11.5h18.5h19.5t18.5 0.5t18.5 2t15.5 4t14.5 7t10.5 10.5t7.5 14.5t2 19.5q0 12 -2.5 32.5t-2.5 28.5q-1 13 0 26q5 32 36 35.5t36 -27.5q7 -41 10 -72t-0.5 -63t-15.5 -53t-37 -34t-63 -13zM244 398q-14 20 -42.5 22
t-47.5 -16t-8 -47q15 -42 56 -36q34 5 47 33q10 22 -5 44zM130 398q-22 16 -53.5 14t-45.5 -19t0 -46q16 -25 44 -27t47 11q28 14 29 33q2 17 -21 34z" />
    <glyph glyph-name="tehar.medi" unicode="&#x62a;" horiz-adv-x="279" arabic-form="medial" 
d="M0 0q-22 0 -36 11.5t-14 29.5t14 29.5t36 11.5q69 0 92 13q36 19 36 78q0 21 1 32q2 20 4 25q4 17 15.5 28t22.5 10q25 -2 33 -38q3 -15 6.5 -40.5t7 -41t10 -32.5t19.5 -25t32 -9v-82q-40 0 -63 8t-51 33q-52 -41 -165 -41zM259 398q-14 20 -42.5 22t-47.5 -16t-8 -47
q15 -42 56 -36q34 5 47 33q10 22 -5 44zM145 398q-22 16 -53.5 14t-45.5 -19t0 -46q16 -25 44 -27t47 11q28 14 29 33q2 17 -21 34z" />
    <glyph glyph-name="thehar.fina" unicode="&#x62b;" horiz-adv-x="806" arabic-form="final" 
d="M606 105q43 5 47.5 26.5t-9.5 83.5q-10 60 23 84q28 20 51 -5q16 -17 21 -50q3 -20 5 -37.5t3.5 -39t3.5 -38.5q5 -47 53 -47h2v-82h-40q-11 0 -20.5 1.5t-15.5 3t-14 5.5t-10 5.5t-10 6.5l-8 6q-104 -28 -334 -27q-40 0 -75 3t-70.5 10t-63.5 17.5t-50.5 28t-33.5 40
t-11 53.5t14 69q3 8 8.5 23.5t8.5 24t8.5 20.5t10.5 17.5t12 10.5t15.5 5t18.5 -5q27 -13 20 -45q-4 -23 -16 -67q-11 -35 5 -60t53.5 -37t84 -18t105 -4t107.5 6.5t101 11.5zM457 441q-17 21 -25 29.5t-16 8.5t-12 -4.5t-16.5 -18.5t-25.5 -25q-79 -69 -91 -32q-9 29 28 90
q44 72 96 86q48 11 85 -38q57 -78 46 -117q-7 -26 -36 -9q-17 10 -33 30z" />
    <glyph glyph-name="thehar.init" unicode="&#x62b;" horiz-adv-x="223" arabic-form="initial" 
d="M56 0h-55q-18 0 -34.5 12t-16.5 29q0 18 14 29.5t36 11.5h11h14.5t15 1t16.5 3t14.5 6.5t12.5 10.5t7.5 15.5t3.5 21.5t-2.5 32.5t-2.5 28.5q-1 13 0 26q5 32 36 35.5t36 -27.5q7 -41 10 -72t-0.5 -63t-15.5 -53t-37 -34t-63 -13zM156 350q-17 21 -25 29.5t-16 8.5
t-12 -4.5t-16.5 -18.5t-25.5 -25q-79 -69 -91 -32q-9 29 28 90q44 72 96 86q48 11 85 -38q57 -78 46 -117q-7 -26 -36 -9q-17 10 -33 30z" />
    <glyph glyph-name="thehar.medi" unicode="&#x62b;" horiz-adv-x="249" arabic-form="medial" 
d="M0 0q-22 0 -36 11.5t-14 29.5t14 29.5t36 11.5h18t19.5 2t23 8t18 15t15 26t4.5 40q0 21 1 32q2 20 4 25q4 17 15.5 28t22.5 10q25 -2 33 -38q3 -15 6.5 -40.5t7 -41t10 -32.5t19.5 -25t32 -9v-82q-40 0 -63 8t-51 33q-52 -41 -135 -41zM184 355q-17 21 -25 29.5t-16 8.5
t-12 -4.5t-16.5 -18.5t-25.5 -25q-79 -69 -91 -32q-9 29 28 90q44 72 96 86q48 11 85 -38q57 -78 46 -117q-7 -26 -36 -9q-17 10 -33 30z" />
    <glyph glyph-name="uniFE9E" unicode="&#x62c;" horiz-adv-x="580" arabic-form="final" 
d="M414 340q76 -32 104 -100t12 -158h50v-82q-13 0 -88 -2q-33 -1 -201 -21q-3 0 -8 -1q-28 -3 -43 -5.5t-41 -10.5t-39.5 -18t-23 -28.5t-7.5 -43.5q4 -38 43 -60t90.5 -29t101.5 -11.5t81.5 -16t25.5 -34.5q-14 -53 -59.5 -62.5t-87.5 6.5q-8 1 -12 2q-45 8 -73 15
t-65.5 21.5t-61 32.5t-45 48.5t-31.5 69.5q-15 58 8.5 105.5t78.5 71.5q24 10 71 20t87 16t84 11.5t48 6.5q28 10 28 44.5t-28 77t-63 55.5q-37 13 -83 14.5t-84 -3.5q-51 -5 -62 16q-23 41 44 64q77 25 180 8q39 -7 69 -19zM410 -87q-19 16 -41 18t-35 -16.5t-2 -47.5
q15 -39 51 -28q29 9 37 35q6 21 -10 39z" />
    <glyph glyph-name="uniFE9F" unicode="&#x62c;" horiz-adv-x="508" arabic-form="initial" 
d="M354 162q0 138 -259 112q-29 -2 -39 11q-11 14 -6.5 33t20.5 28q17 8 34 12q97 16 162 9q91 -11 151.5 -87.5t30.5 -145.5q-35 -79 -143 -105.5t-304 -28.5q-51 0 -51 41t50 41q354 -3 354 80zM210 -67q-19 16 -41 18t-35 -16.5t-2 -47.5q15 -39 51 -28q29 9 37 35
q6 21 -10 39z" />
    <glyph glyph-name="uniFEA0" unicode="&#x62c;" horiz-adv-x="518" arabic-form="medial" 
d="M518 82v-82h-21q-48 0 -85 13.5t-52 30.5q-56 -25 -141.5 -34t-217.5 -10q-51 0 -51 41t50 41q354 -3 354 80q0 60 -32.5 86.5t-88.5 26t-131 -4.5q-5 -1 -7 -1q-29 -2 -39 11q-36 49 49 72q73 20 161 10q91 -10 136.5 -69.5t45.5 -158.5q0 -24 13 -38t37 -14h20z
M210 -67q-19 16 -41 18t-35 -16.5t-2 -47.5q15 -39 51 -28q29 9 37 35q6 21 -10 39z" />
    <glyph glyph-name="hahar.fina" unicode="&#x62d;" horiz-adv-x="580" arabic-form="final" 
d="M414 340q76 -32 104 -100t12 -158h50v-82q-13 0 -88 -2q-33 -1 -201 -21q-3 0 -8 -1q-28 -3 -43 -5.5t-41 -10.5t-39.5 -18t-23 -28.5t-7.5 -43.5q4 -38 43 -60t90.5 -29t101.5 -11.5t81.5 -16t25.5 -34.5q-14 -53 -59.5 -62.5t-87.5 6.5q-8 1 -12 2q-45 8 -73 15
t-65.5 21.5t-61 32.5t-45 48.5t-31.5 69.5q-15 58 8.5 105.5t78.5 71.5q24 10 71 20t87 16t84 11.5t48 6.5q28 10 28 44.5t-28 77t-63 55.5q-37 13 -83 14.5t-84 -3.5q-51 -5 -62 16q-23 41 44 64q77 25 180 8q39 -7 69 -19z" />
    <glyph glyph-name="hahar.init" unicode="&#x62d;" horiz-adv-x="508" arabic-form="initial" 
d="M354 162q0 138 -259 112q-29 -2 -39 11q-11 14 -6.5 33t20.5 28q17 8 34 12q97 16 162 9q91 -11 151.5 -87.5t30.5 -145.5q-35 -79 -143 -105.5t-304 -28.5q-51 0 -51 41t50 41q354 -3 354 80z" />
    <glyph glyph-name="hahar.medi" unicode="&#x62d;" horiz-adv-x="518" arabic-form="medial" 
d="M518 82v-82h-21q-48 0 -85 13.5t-52 30.5q-56 -25 -141.5 -34t-217.5 -10q-51 0 -51 41t50 41q354 -3 354 80q0 60 -32.5 86.5t-88.5 26t-131 -4.5q-5 -1 -7 -1q-29 -2 -39 11q-36 49 49 72q73 20 161 10q91 -10 136.5 -69.5t45.5 -158.5q0 -24 13 -38t37 -14h20z" />
    <glyph glyph-name="khahar.fina" unicode="&#x62e;" horiz-adv-x="580" arabic-form="final" 
d="M414 340q76 -32 104 -100t12 -158h50v-82q-13 0 -88 -2q-33 -1 -201 -21q-3 0 -8 -1q-28 -3 -43 -5.5t-41 -10.5t-39.5 -18t-23 -28.5t-7.5 -43.5q4 -38 43 -60t90.5 -29t101.5 -11.5t81.5 -16t25.5 -34.5q-14 -53 -59.5 -62.5t-87.5 6.5q-8 1 -12 2q-45 8 -73 15
t-65.5 21.5t-61 32.5t-45 48.5t-31.5 69.5q-15 58 8.5 105.5t78.5 71.5q24 10 71 20t87 16t84 11.5t48 6.5q28 10 28 44.5t-28 77t-63 55.5q-37 13 -83 14.5t-84 -3.5q-51 -5 -62 16q-23 41 44 64q77 25 180 8q39 -7 69 -19zM343 498q-16 23 -43 19.5t-38.5 -25t3.5 -51.5
q19 -30 46 -25.5t36.5 29.5t-4.5 53z" />
    <glyph glyph-name="khahar.init" unicode="&#x62e;" horiz-adv-x="508" arabic-form="initial" 
d="M354 162q0 138 -259 112q-29 -2 -39 11q-11 14 -6.5 33t20.5 28q17 8 34 12q97 16 162 9q91 -11 151.5 -87.5t30.5 -145.5q-35 -79 -143 -105.5t-304 -28.5q-51 0 -51 41t50 41q354 -3 354 80zM263 502q-16 23 -43 19.5t-38.5 -25t3.5 -51.5q19 -30 46 -25.5t36.5 29.5
t-4.5 53z" />
    <glyph glyph-name="khahar.medi" unicode="&#x62e;" horiz-adv-x="518" arabic-form="medial" 
d="M518 82v-82h-21q-48 0 -85 13.5t-52 30.5q-56 -25 -141.5 -34t-217.5 -10q-51 0 -51 41t50 41q354 -3 354 80q0 60 -32.5 86.5t-88.5 26t-131 -4.5q-5 -1 -7 -1q-29 -2 -39 11q-36 49 49 72q73 20 161 10q91 -10 136.5 -69.5t45.5 -158.5q0 -24 13 -38t37 -14h20z
M263 499q-16 23 -43 19.5t-38.5 -25t3.5 -51.5q19 -30 46 -25.5t36.5 29.5t-4.5 53z" />
    <glyph glyph-name="dalar.fina" unicode="&#x62f;" horiz-adv-x="430" arabic-form="final" 
d="M430 82v-82q-81 0 -126 34q-54 -26 -85.5 -30t-121.5 -2q-32 1 -43.5 22t4.5 41t48 17q55 -5 90.5 -4t56.5 20t30 63q12 57 -30.5 78.5t-105.5 4.5q-22 -6 -32 -4t-18 15q-21 33 1.5 62.5t68 36t103.5 -15.5q57 -24 84 -82.5t27 -125.5q0 -22 13 -35t36 -13z" />
    <glyph glyph-name="thalar.fina" unicode="&#x630;" horiz-adv-x="430" arabic-form="final" 
d="M430 82v-82q-81 0 -126 34q-54 -26 -85.5 -30t-121.5 -2q-32 1 -43.5 22t4.5 41t48 17q55 -5 90.5 -4t56.5 20t30 63q12 57 -30.5 78.5t-105.5 4.5q-22 -6 -32 -4t-18 15q-21 33 1.5 62.5t68 36t103.5 -15.5q57 -24 84 -82.5t27 -125.5q0 -22 13 -35t36 -13zM251 488
q-16 23 -43 19.5t-38.5 -25t3.5 -51.5q19 -30 46 -25.5t36.5 29.5t-4.5 53z" />
    <glyph glyph-name="uniFEAE" unicode="&#x631;" horiz-adv-x="330" arabic-form="final" 
d="M329 82v-82q-31 0 -58 6q-10 -65 -25 -96q-64 -126 -148 -141q-67 -12 -91 22q-18 23 2 43q10 10 29 13q44 6 75 32.5t45.5 66t20 79t3.5 82.5q-1 13 -2.5 35.5t-2.5 38t-1.5 35t2 33t7.5 24.5t15 16t25 3q29 -4 43 -52t12 -118q0 -18 14 -29t35 -11z" />
    <glyph glyph-name="zainar.fina" unicode="&#x632;" horiz-adv-x="330" arabic-form="final" 
d="M329 82v-82q-31 0 -58 6q-10 -65 -25 -96q-64 -126 -148 -141q-67 -12 -91 22q-18 23 2 43q10 10 29 13q44 6 75 32.5t45.5 66t20 79t3.5 82.5q-1 13 -2.5 35.5t-2.5 38t-1.5 35t2 33t7.5 24.5t15 16t25 3q29 -4 43 -52t12 -118q0 -18 14 -29t35 -11zM251 424
q-16 23 -43 19.5t-38.5 -25t3.5 -51.5q19 -30 46 -25.5t36.5 29.5t-4.5 53z" />
    <glyph glyph-name="uniFEB2" unicode="&#x633;" horiz-adv-x="1038" arabic-form="final" 
d="M691 84q-23 -21 -49 -33.5t-46.5 -15.5t-38 -2.5t-27.5 2t-10 0.5q-22 -51 -67 -96q-25 -24 -70 -42t-85 -23q-65 -8 -128 20.5t-100 83.5q-35 53 -39 121.5t28 124.5q20 32 41.5 42t32 -6.5t2.5 -52.5q-10 -43 -13.5 -71.5t2 -68t25.5 -67.5q37 -50 151 -50
q44 0 78.5 34.5t37.5 82.5q1 18 -3.5 57.5t-5 63t10.5 55.5q7 15 24 17t29 -8q5 -4 8.5 -9.5t5 -10t3.5 -12.5l3 -12q1 -3 4.5 -17.5t6.5 -23.5t8 -21t12 -19.5t15 -9.5q37 -10 65.5 8.5t43.5 54.5q2 5 8 22.5t10.5 27t15 18t23.5 6.5q19 -3 30 -22q3 -4 5 -9.5t3 -13.5
t2 -11q7 -34 18 -70q3 -13 13 -21q21 -18 56 -10.5t47 31.5q7 13 9 29t2 36.5t1 31.5q4 30 17 46q15 19 33 16t26 -25q15 -40 15 -101q0 -4 -0.5 -15.5t-0.5 -18t2 -15.5t7 -15q12 -15 50 -15v-82q-36 0 -55 8t-39 26q-8 6 -30 4q-10 -2 -29 -7t-35 -8t-30 -3q-33 0 -58 12
t-36.5 26.5t-20 22.5t-14.5 3z" />
    <glyph glyph-name="seenar.init" unicode="&#x633;" horiz-adv-x="806" arabic-form="initial" 
d="M97 131q11 23 20 72q3 16 8 31.5t18 29.5t29 10t25 -23.5t10.5 -38.5t2.5 -48.5t1 -34.5q2 -25 37.5 -36t74.5 -6t52 20q15 18 20 40.5t5.5 57t2.5 46.5q4 33 23 42q24 12 40 3.5t20 -35.5q2 -31 3 -65.5t3.5 -63t23.5 -48.5t63 -23q35 -3 58 17t25 54q3 49 5 148
q1 23 22 42q19 17 33.5 11.5t20.5 -27.5q10 -37 11 -71q3 -43 0 -87q-4 -52 -34 -92.5t-72 -59t-92.5 -14t-92.5 36.5l-27 24q-46 -27 -98.5 -31.5t-93 6t-97.5 32.5q-47 -36 -68 -43t-79 -7q-22 0 -36 11.5t-14 29.5t14 29.5t36 11.5q43 0 62.5 9t34.5 40z" />
    <glyph glyph-name="seenar.medi" unicode="&#x633;" horiz-adv-x="804" arabic-form="medial" 
d="M0 0q-22 0 -36 11.5t-14 29.5t14 29.5t36 11.5q58 0 73 16.5t25 81.5l9 43q7 33 34 31q18 0 36 -20q4 -5 14 -36l15 -52q10 -35 49 -51.5t81.5 -8t62.5 38.5q12 18 16 61.5t14 61.5q19 29 42.5 13.5t27.5 -45.5q2 -11 2.5 -30.5t1.5 -27.5q3 -28 25 -47.5t47.5 -16.5
t36.5 34q9 25 9 75t2 63q4 30 21 44.5t34.5 6t21.5 -38.5q12 -77 13 -100q4 -59 19.5 -76.5t71.5 -19.5v-82q-74 0 -112 32q-17 16 -47 4q-74 -28 -116 -13q-14 6 -41 19.5t-36 17.5q-169 -115 -305 13q-25 -45 -57 -59t-90 -14z" />
    <glyph glyph-name="sheenar.fina" unicode="&#x634;" horiz-adv-x="1038" arabic-form="final" 
d="M691 84q-23 -21 -49 -33.5t-46.5 -15.5t-38 -2.5t-27.5 2t-10 0.5q-22 -51 -67 -96q-25 -24 -70 -42t-85 -23q-65 -8 -128 20.5t-100 83.5q-35 53 -39 121.5t28 124.5q20 32 41.5 42t32 -6.5t2.5 -52.5q-10 -43 -13.5 -71.5t2 -68t25.5 -67.5q37 -50 151 -50
q44 0 78.5 34.5t37.5 82.5q1 18 -3.5 57.5t-5 63t10.5 55.5q7 15 24 17t29 -8q5 -4 8.5 -9.5t5 -10t3.5 -12.5l3 -12q1 -3 4.5 -17.5t6.5 -23.5t8 -21t12 -19.5t15 -9.5q37 -10 65.5 8.5t43.5 54.5q2 5 8 22.5t10.5 27t15 18t23.5 6.5q19 -3 30 -22q3 -4 5 -9.5t3 -13.5
t2 -11q7 -34 18 -70q3 -13 13 -21q21 -18 56 -10.5t47 31.5q7 13 9 29t2 36.5t1 31.5q4 30 17 46q15 19 33 16t26 -25q15 -40 15 -101q0 -4 -0.5 -15.5t-0.5 -18t2 -15.5t7 -15q12 -15 50 -15v-82q-36 0 -55 8t-39 26q-8 6 -30 4q-10 -2 -29 -7t-35 -8t-30 -3q-33 0 -58 12
t-36.5 26.5t-20 22.5t-14.5 3zM796 376q-26 32 -52 41.5t-49.5 0.5t-52.5 -34q-75 -65 -80 -39q-4 23 40 78q63 78 127 89q54 9 90 -40q59 -70 50 -112q-6 -26 -33 -17q-19 8 -40 33z" />
    <glyph glyph-name="sheenar.init" unicode="&#x634;" horiz-adv-x="806" arabic-form="initial" 
d="M97 131q11 23 20 72q3 16 8 31.5t18 29.5t29 10t25 -23.5t10.5 -38.5t2.5 -48.5t1 -34.5q2 -25 37.5 -36t74.5 -6t52 20q15 18 20 40.5t5.5 57t2.5 46.5q4 33 23 42q24 12 40 3.5t20 -35.5q2 -31 3 -65.5t3.5 -63t23.5 -48.5t63 -23q35 -3 58 17t25 54q3 49 5 148
q1 23 22 42q19 17 33.5 11.5t20.5 -27.5q10 -37 11 -71q3 -43 0 -87q-4 -52 -34 -92.5t-72 -59t-92.5 -14t-92.5 36.5l-27 24q-46 -27 -98.5 -31.5t-93 6t-97.5 32.5q-47 -36 -68 -43t-79 -7q-22 0 -36 11.5t-14 29.5t14 29.5t36 11.5q43 0 62.5 9t34.5 40zM566 418
q-26 32 -52 41.5t-49.5 0.5t-52.5 -34q-75 -65 -80 -39q-4 23 40 78q63 78 127 89q54 9 90 -40q59 -70 50 -112q-6 -26 -33 -17q-19 8 -40 33z" />
    <glyph glyph-name="sheenar.medi" unicode="&#x634;" horiz-adv-x="804" arabic-form="medial" 
d="M0 0q-22 0 -36 11.5t-14 29.5t14 29.5t36 11.5q58 0 73 16.5t25 81.5l9 43q7 33 34 31q18 0 36 -20q4 -5 14 -36l15 -52q10 -35 49 -51.5t81.5 -8t62.5 38.5q12 18 16 61.5t14 61.5q19 29 42.5 13.5t27.5 -45.5q2 -11 2.5 -30.5t1.5 -27.5q3 -28 25 -47.5t47.5 -16.5
t36.5 34q9 25 9 75t2 63q4 30 21 44.5t34.5 6t21.5 -38.5q12 -77 13 -100q4 -59 19.5 -76.5t71.5 -19.5v-82q-74 0 -112 32q-17 16 -47 4q-74 -28 -116 -13q-14 6 -41 19.5t-36 17.5q-169 -115 -305 13q-25 -45 -57 -59t-90 -14zM526 403q-26 32 -52 41.5t-49.5 0.5
t-52.5 -34q-75 -65 -80 -39q-4 23 40 78q63 78 127 89q54 9 90 -40q59 -70 50 -112q-6 -26 -33 -17q-19 8 -40 33z" />
    <glyph glyph-name="sadar.fina" unicode="&#x635;" horiz-adv-x="1216" arabic-form="final" 
d="M112 158q18 2 32 -23q15 -26 9.5 -94.5t18.5 -93.5q31 -39 85 -52.5t100 4.5q118 40 96 155q-26 120 12 139q28 14 40 -11q62 -126 82 -127q8 -1 13 18q19 77 82 142.5t141.5 93.5t153.5 24.5t125.5 -69t50.5 -182.5h63v-82h-115q-8 0 -26 -2q-145 -32 -263 -35t-242 17
q-18 3 -24.5 -8.5t-15.5 -38t-27 -47.5q-41 -48 -102 -68q-52 -14 -105.5 -12t-102.5 27t-84.5 59.5t-50.5 86t-2 106.5q5 23 21.5 47t34.5 26zM678 71q-11 -20 36 -26q55 -6 243 11q11 1 26.5 3.5t30.5 6t28 6.5t20.5 6t7.5 4q-14 73 -49.5 113t-81 44t-94 -14t-93.5 -59.5
t-74 -94.5z" />
    <glyph glyph-name="sadar.init" unicode="&#x635;" horiz-adv-x="818" arabic-form="initial" 
d="M0 82h51q28 0 36.5 21.5t4 48.5t-1 53t22.5 33q41 15 59.5 -16.5t16.5 -74.5q0 -60 23 -65q17 -4 26 25q0 2 1 4q17 64 38 106t64 73q60 45 136 55.5t145.5 -17.5t110.5 -89q18 -27 27.5 -55.5t5.5 -60t-27 -52.5q-19 -17 -40 -23q-62 -20 -160.5 -33.5t-171.5 -14.5
q-182 -2 -222 32q-4 3 -8 -1q-28 -31 -137 -31q-33 0 -46 20.5t0.5 41t45.5 20.5zM320 76q14 1 57.5 3t82.5 4.5t82 6t73.5 10t38.5 14.5q21 26 1 66.5t-54 61.5q-45 28 -94.5 21t-91 -33t-68.5 -68.5t-27 -85.5z" />
    <glyph glyph-name="sadar.medi" unicode="&#x635;" horiz-adv-x="816" arabic-form="medial" 
d="M816 82v-82q-37 0 -77 13.5t-61 28.5q-64 -18 -154 -29.5t-157 -12.5q-182 -2 -222 32q-1 2 -3.5 2t-2.5 -2t-4 -5t-8 -6.5t-15 -7t-24.5 -6.5t-36.5 -5t-51 -2q-33 0 -46 20.5t0.5 41t45.5 20.5h51q28 0 36.5 21.5t4 48.5t-1 53t22.5 33q41 15 59.5 -16.5t16.5 -74.5
q0 -46 22 -60q18 -12 26 14l2 10q11 78 70.5 138.5t135 84.5t157 1.5t131.5 -96.5q39 -60 34 -113q3 -44 49 -44zM654 114q23 25 2 69.5t-55 58.5q-88 35 -150.5 8.5t-96.5 -77t-34 -97.5q14 1 57.5 3t82.5 4.5t82 6t73.5 10t38.5 14.5z" />
    <glyph glyph-name="dadar.fina" unicode="&#x636;" horiz-adv-x="1216" arabic-form="final" 
d="M112 158q18 2 32 -23q15 -26 9.5 -94.5t18.5 -93.5q31 -39 85 -52.5t100 4.5q118 40 96 155q-26 120 12 139q28 14 40 -11q62 -126 82 -127q8 -1 13 18q19 77 82 142.5t141.5 93.5t153.5 24.5t125.5 -69t50.5 -182.5h63v-82h-115q-8 0 -26 -2q-145 -32 -263 -35t-242 17
q-18 3 -24.5 -8.5t-15.5 -38t-27 -47.5q-41 -48 -102 -68q-52 -14 -105.5 -12t-102.5 27t-84.5 59.5t-50.5 86t-2 106.5q5 23 21.5 47t34.5 26zM678 71q-11 -20 36 -26q55 -6 243 11q11 1 26.5 3.5t30.5 6t28 6.5t20.5 6t7.5 4q-14 73 -49.5 113t-81 44t-94 -14t-93.5 -59.5
t-74 -94.5zM773 463q-16 23 -43 19.5t-38.5 -25t3.5 -51.5q19 -30 46 -25.5t36.5 29.5t-4.5 53z" />
    <glyph glyph-name="dadar.init" unicode="&#x636;" horiz-adv-x="818" arabic-form="initial" 
d="M0 82h51q28 0 36.5 21.5t4 48.5t-1 53t22.5 33q41 15 59.5 -16.5t16.5 -74.5q0 -60 23 -65q17 -4 26 25q0 2 1 4q17 64 38 106t64 73q60 45 136 55.5t145.5 -17.5t110.5 -89q18 -27 27.5 -55.5t5.5 -60t-27 -52.5q-19 -17 -40 -23q-62 -20 -160.5 -33.5t-171.5 -14.5
q-182 -2 -222 32q-4 3 -8 -1q-28 -31 -137 -31q-33 0 -46 20.5t0.5 41t45.5 20.5zM320 76q14 1 57.5 3t82.5 4.5t82 6t73.5 10t38.5 14.5q21 26 1 66.5t-54 61.5q-45 28 -94.5 21t-91 -33t-68.5 -68.5t-27 -85.5zM433 463q-16 23 -43 19.5t-38.5 -25t3.5 -51.5
q19 -30 46 -25.5t36.5 29.5t-4.5 53z" />
    <glyph glyph-name="dadar.medi" unicode="&#x636;" horiz-adv-x="816" arabic-form="medial" 
d="M816 82v-82q-37 0 -77 13.5t-61 28.5q-64 -18 -154 -29.5t-157 -12.5q-182 -2 -222 32q-1 2 -3.5 2t-2.5 -2t-4 -5t-8 -6.5t-15 -7t-24.5 -6.5t-36.5 -5t-51 -2q-33 0 -46 20.5t0.5 41t45.5 20.5h51q28 0 36.5 21.5t4 48.5t-1 53t22.5 33q41 15 59.5 -16.5t16.5 -74.5
q0 -46 22 -60q18 -12 26 14l2 10q11 78 70.5 138.5t135 84.5t157 1.5t131.5 -96.5q39 -60 34 -113q3 -44 49 -44zM654 114q23 25 2 69.5t-55 58.5q-88 35 -150.5 8.5t-96.5 -77t-34 -97.5q14 1 57.5 3t82.5 4.5t82 6t73.5 10t38.5 14.5zM433 463q-16 23 -43 19.5t-38.5 -25
t3.5 -51.5q19 -30 46 -25.5t36.5 29.5t-4.5 53z" />
    <glyph glyph-name="tahar.fina" unicode="&#x637;" horiz-adv-x="835" arabic-form="final" 
d="M835 82v-82q-76 0 -121 30l-9 -3q-56 -18 -118 -23.5t-104 -3t-118 9.5t-114 9q-27 2 -110 16q-32 5 -45 32q-18 35 14 46q14 4 43 0q10 -1 28 -4t25 -4q8 -1 12.5 -1h7.5t4.5 4t1.5 6t0.5 10t0.5 13q2 32 2 64v54.5t-2 60t-3.5 56t-5 70t-5.5 74.5q-4 57 32 76
q27 15 46 -6q12 -14 11 -37q-3 -42 -0.5 -100t6.5 -100.5t8 -81t4 -40.5q48 66 111 96.5t121.5 24t109.5 -33t83 -72.5t34 -96q1 -6 1 -16q0 -22 13 -35t36 -13zM552 82q3 0 17 0.5t21.5 1t21.5 1.5t22 3.5t19.5 6t17 9t10 12.5t4 17.5t-5.5 22.5q-23 56 -73 77t-103 9
t-103.5 -50t-76.5 -91q27 -7 96 -14.5t133 -4.5z" />
    <glyph glyph-name="tahar.init" unicode="&#x637;" horiz-adv-x="652" arabic-form="initial" 
d="M522 27q-70 -25 -136 -31.5t-175 -1t-143 5.5h-66q-23 0 -37.5 11t-14.5 30q0 18 14.5 29.5t36.5 11.5h22q21 0 25 13t2 42q-7 91 -8 186.5t-6 164.5q-4 55 17 72t45 -3.5t27 -56.5q9 -74 15 -243q0 -4 1.5 -13.5t1.5 -16.5q122 144 280 107q50 -12 83.5 -35t65.5 -67
q41 -54 27 -117.5t-77 -87.5zM369 82q3 0 17 0.5t21.5 1t21.5 1.5t22 3.5t19.5 6t17 9t10 12.5t4 17.5t-5.5 22.5q-18 42 -57.5 72.5t-80.5 30.5q-53 0 -132 -72t-79 -105q30 -8 222 0z" />
    <glyph glyph-name="tahar.medi" unicode="&#x637;" horiz-adv-x="652" arabic-form="medial" 
d="M652 82v-82q-76 0 -121 30l-9 -3q-56 -18 -117.5 -25.5t-104 -7t-117.5 3t-115 2.5h-66q-23 0 -37.5 11t-14.5 30q0 18 14.5 29.5t36.5 11.5h22q21 0 25 13t2 42t-5.5 168.5t-8.5 202.5q-4 52 30 72q28 16 47 -7q10 -12 12 -32q6 -22 8.5 -68.5t6.5 -215.5
q0 -4 1.5 -13.5t1.5 -16.5q45 63 112 99t152 16q103 -24 165 -110q28 -38 30 -86q1 -6 1 -16q0 -22 13 -35t36 -13zM369 82q3 0 17 0.5t21.5 1t21.5 1.5t22 3.5t19.5 6t17 9t10 12.5t4 17.5t-5.5 22.5q-18 42 -57.5 72.5t-80.5 30.5q-35 0 -90.5 -35t-92 -75.5t-23.5 -54.5
q23 -6 87 -10.5t130 -1.5z" />
    <glyph glyph-name="zahar.fina" unicode="&#x638;" horiz-adv-x="835" arabic-form="final" 
d="M835 82v-82q-76 0 -121 30l-9 -3q-56 -18 -118 -23.5t-104 -3t-118 9.5t-114 9q-27 2 -110 16q-32 5 -45 32q-18 35 14 46q14 4 43 0q10 -1 28 -4t25 -4q8 -1 12.5 -1h7.5t4.5 4t1.5 6t0.5 10t0.5 13q2 32 2 64v54.5t-2 60t-3.5 56t-5 70t-5.5 74.5q-4 57 32 76
q27 15 46 -6q12 -14 11 -37q-3 -42 -0.5 -100t6.5 -100.5t8 -81t4 -40.5q48 66 111 96.5t121.5 24t109.5 -33t83 -72.5t34 -96q1 -6 1 -16q0 -22 13 -35t36 -13zM552 82q3 0 17 0.5t21.5 1t21.5 1.5t22 3.5t19.5 6t17 9t10 12.5t4 17.5t-5.5 22.5q-23 56 -73 77t-103 9
t-103.5 -50t-76.5 -91q27 -7 96 -14.5t133 -4.5zM463 480q-16 23 -43 19.5t-38.5 -25t3.5 -51.5q19 -30 46 -25.5t36.5 29.5t-4.5 53z" />
    <glyph glyph-name="zahar.init" unicode="&#x638;" horiz-adv-x="652" arabic-form="initial" 
d="M522 27q-70 -25 -136 -31.5t-175 -1t-143 5.5h-66q-23 0 -37.5 11t-14.5 30q0 18 14.5 29.5t36.5 11.5h22q21 0 25 13t2 42q-7 91 -8 186.5t-6 164.5q-4 55 17 72t45 -3.5t27 -56.5q9 -74 15 -243q0 -4 1.5 -13.5t1.5 -16.5q122 144 280 107q50 -12 83.5 -35t65.5 -67
q41 -54 27 -117.5t-77 -87.5zM369 82q3 0 17 0.5t21.5 1t21.5 1.5t22 3.5t19.5 6t17 9t10 12.5t4 17.5t-5.5 22.5q-18 42 -57.5 72.5t-80.5 30.5q-53 0 -132 -72t-79 -105q30 -8 222 0zM333 480q-16 23 -43 19.5t-38.5 -25t3.5 -51.5q19 -30 46 -25.5t36.5 29.5t-4.5 53z
" />
    <glyph glyph-name="zahar.medi" unicode="&#x638;" horiz-adv-x="652" arabic-form="medial" 
d="M652 82v-82q-76 0 -121 30l-9 -3q-56 -18 -117.5 -25.5t-104 -7t-117.5 3t-115 2.5h-66q-23 0 -37.5 11t-14.5 30q0 18 14.5 29.5t36.5 11.5h22q21 0 25 13t2 42t-5.5 168.5t-8.5 202.5q-4 52 30 72q28 16 47 -7q10 -12 12 -32q6 -22 8.5 -68.5t6.5 -215.5
q0 -4 1.5 -13.5t1.5 -16.5q45 63 112 99t152 16q103 -24 165 -110q28 -38 30 -86q1 -6 1 -16q0 -22 13 -35t36 -13zM369 82q3 0 17 0.5t21.5 1t21.5 1.5t22 3.5t19.5 6t17 9t10 12.5t4 17.5t-5.5 22.5q-18 42 -57.5 72.5t-80.5 30.5q-35 0 -90.5 -35t-92 -75.5t-23.5 -54.5
q23 -6 87 -10.5t130 -1.5zM363 480q-16 23 -43 19.5t-38.5 -25t3.5 -51.5q19 -30 46 -25.5t36.5 29.5t-4.5 53z" />
    <glyph glyph-name="ainar.fina" unicode="&#x639;" horiz-adv-x="422" arabic-form="final" 
d="M335 -359q-260 40 -282 173q-13 72 32 148q6 10 30 32.5t42 42.5t14 30q-3 5 -31 35.5t-35 45.5q-22 51 7.5 99.5t84.5 71.5t103 9q21 -6 29.5 -19.5t1.5 -27t-26 -20.5q-9 -3 -28.5 -3.5t-28.5 -2.5q-33 -9 -50 -37q-23 -35 1.5 -66.5t84.5 -50.5t138 -19v-82h-126
q-55 0 -91.5 -33t-52.5 -90q-18 -64 31 -108q38 -32 83.5 -42t107.5 -10t92 -5q11 -2 18.5 -7t6.5 -15q-4 -43 -48.5 -53t-107.5 4z" />
    <glyph glyph-name="ainar.init" unicode="&#x639;" horiz-adv-x="431" arabic-form="initial" 
d="M116 84q-24 -4 -47.5 34t-28.5 88t14 96q14 29 53 56.5t89.5 35t94.5 -39.5q24 -26 20.5 -54t-25.5 -34t-49 11q-52 42 -80 2q-25 -36 -8 -98q13 -50 50 -80q18 -15 79 -18t77 -7q23 -6 26 -32q2 -29 -64 -38t-174 -8q-20 0 -72 0.5t-71 1.5q-50 0 -50 41t50 41q8 0 47 1
z" />
    <glyph glyph-name="ainar.medi" unicode="&#x639;" horiz-adv-x="409" arabic-form="medial" 
d="M95 186q-4 4 -14.5 17t-14 17.5t-10.5 15t-7 16.5t-0.5 15t4.5 17.5t14 17.5q40 41 113 53.5t131.5 -16.5t56.5 -95q-1 -31 -8.5 -54t-14 -33.5t-25.5 -32.5t-27 -32q17 -10 116 -10v-82q-105 0 -174 23q-8 3 -17.5 7.5t-14 6t-11.5 0.5t-16 -7q-25 -16 -62 -23t-113 -7
q-51 0 -51 42q0 40 51 40q104 0 123.5 21t-29.5 83zM137 244l81 -90q52 37 47 83q-4 35 -37 44q-43 13 -91 -37z" />
    <glyph glyph-name="ghainar.fina" unicode="&#x63a;" horiz-adv-x="422" arabic-form="final" 
d="M335 -359q-260 40 -282 173q-13 72 32 148q6 10 30 32.5t42 42.5t14 30q-3 5 -31 35.5t-35 45.5q-22 51 7.5 99.5t84.5 71.5t103 9q21 -6 29.5 -19.5t1.5 -27t-26 -20.5q-9 -3 -28.5 -3.5t-28.5 -2.5q-33 -9 -50 -37q-23 -35 1.5 -66.5t84.5 -50.5t138 -19v-82h-126
q-55 0 -91.5 -33t-52.5 -90q-18 -64 31 -108q38 -32 83.5 -42t107.5 -10t92 -5q11 -2 18.5 -7t6.5 -15q-4 -43 -48.5 -53t-107.5 4zM223 460q-16 23 -43 19.5t-38.5 -25t3.5 -51.5q19 -30 46 -25.5t36.5 29.5t-4.5 53z" />
    <glyph glyph-name="ghainar.init" unicode="&#x63a;" horiz-adv-x="431" arabic-form="initial" 
d="M116 84q-24 -4 -47.5 34t-28.5 88t14 96q14 29 53 56.5t89.5 35t94.5 -39.5q24 -26 20.5 -54t-25.5 -34t-49 11q-52 42 -80 2q-25 -36 -8 -98q13 -50 50 -80q18 -15 79 -18t77 -7q23 -6 26 -32q2 -29 -64 -38t-174 -8q-20 0 -72 0.5t-71 1.5q-50 0 -50 41t50 41q8 0 47 1
zM175 527q-16 23 -43 19.5t-38.5 -25t3.5 -51.5q19 -30 46 -25.5t36.5 29.5t-4.5 53z" />
    <glyph glyph-name="ghainar.medi" unicode="&#x63a;" horiz-adv-x="409" arabic-form="medial" 
d="M95 186q-4 4 -14.5 17t-14 17.5t-10.5 15t-7 16.5t-0.5 15t4.5 17.5t14 17.5q40 41 113 53.5t131.5 -16.5t56.5 -95q-1 -31 -8.5 -54t-14 -33.5t-25.5 -32.5t-27 -32q17 -10 116 -10v-82q-105 0 -174 23q-8 3 -17.5 7.5t-14 6t-11.5 0.5t-16 -7q-25 -16 -62 -23t-113 -7
q-51 0 -51 42q0 40 51 40q104 0 123.5 21t-29.5 83zM137 244l81 -90q52 37 47 83q-4 35 -37 44q-43 13 -91 -37zM243 490q-16 23 -43 19.5t-38.5 -25t3.5 -51.5q19 -30 46 -25.5t36.5 29.5t-4.5 53z" />
    <glyph glyph-name="fehar.fina" unicode="&#x641;" horiz-adv-x="706" arabic-form="final" 
d="M405 131q0 92 36 144q50 70 106 64q63 -8 91 -63q18 -35 21.5 -70t0.5 -54.5t-15 -69.5h61v-82q-110 0 -167 -5q-18 -2 -68 -7.5t-78.5 -7.5t-69.5 -2.5t-74.5 5.5t-61.5 18q-49 22 -85.5 59.5t-47.5 85.5q-6 40 -1 62t23 59q10 22 30.5 27.5t39.5 -8.5q20 -13 13 -60
q-11 -76 33.5 -114t130.5 -49q32 -4 48 -5.5t28 -0.5t14 3.5t2.5 9t-2.5 13.5t-5.5 20.5t-2.5 27.5zM538 102q24 29 24.5 65t-21.5 62q-21 26 -39 1q-20 -28 -7 -72q11 -36 43 -56zM486 471q-16 23 -43 19.5t-38.5 -25t3.5 -51.5q19 -30 46 -25.5t36.5 29.5t-4.5 53z" />
    <glyph glyph-name="fehar.init" unicode="&#x641;" horiz-adv-x="387" arabic-form="initial" 
d="M229 140q-112 14 -156.5 53.5t-12.5 104.5q22 45 63 69.5t93 11.5q35 -7 65 -43q76 -88 49 -221q-8 -43 -73 -70.5t-130 -36t-126 -8.5q-18 0 -34.5 11t-16.5 30q0 39 50 41q6 0 32 -0.5t42 0t42.5 1.5t43.5 5t34.5 10t26 17t8.5 25zM218 229q-8 41 -37 56
q-25 14 -38.5 -9.5t10.5 -38.5q30 -19 65 -8zM215 515q-16 23 -43 19.5t-38.5 -25t3.5 -51.5q19 -30 46 -25.5t36.5 29.5t-4.5 53z" />
    <glyph glyph-name="fehar.medi" unicode="&#x641;" horiz-adv-x="355" arabic-form="medial" 
d="M282 82h73v-82h-40q-27 0 -84.5 8t-64.5 7q-90 -15 -162 -15h-4q-50 0 -50 41t50 41h83q-23 35 -30 70t6.5 71t49.5 63q74 55 137 22q28 -15 44.5 -43t18.5 -61q1 -11 1 -20.5t-1 -18.5t-2.5 -15.5t-4.5 -16t-5 -15t-7.5 -18t-7.5 -18.5zM155 110q25 4 37 12.5t16 27.5
q13 57 -18 69q-24 10 -45 -14q-30 -32 -1 -80q5 -7 11 -15zM187 451q-16 23 -43 19.5t-38.5 -25t3.5 -51.5q19 -30 46 -25.5t36.5 29.5t-4.5 53z" />
    <glyph glyph-name="qafar.fina" unicode="&#x642;" horiz-adv-x="628" arabic-form="final" 
d="M577 82h50l1 -82h-24q-26 0 -32.5 -6.5t-16.5 -42.5q-14 -51 -48.5 -80.5t-90.5 -48.5q-47 -16 -103.5 -17.5t-109.5 11.5t-93.5 48.5t-51.5 88.5q-24 121 20 187q16 25 36 28q12 1 28 -9.5t19 -22.5q2 -18 1 -25.5t-5.5 -26.5t-5.5 -25q-16 -113 44.5 -148.5
t187.5 -14.5q43 8 61 31t22 70q-80 5 -123.5 44t-36.5 109q5 45 51.5 79.5t91.5 32.5q19 -1 35 -8.5t28.5 -22t21.5 -27.5t16.5 -34.5t11 -32t9 -32t6.5 -23.5zM470 98q-7 44 -22 58t-34 6q-11 -5 -19 -15.5t-7 -21.5q2 -21 32.5 -28t49.5 1zM531 386q-14 20 -42.5 22
t-47.5 -16t-8 -47q15 -42 56 -36q34 5 47 33q10 22 -5 44zM417 386q-22 16 -53.5 14t-45.5 -19t0 -46q16 -25 44 -27t47 11q28 14 29 33q2 17 -21 34z" />
    <glyph glyph-name="qafar.init" unicode="&#x642;" horiz-adv-x="387" arabic-form="initial" 
d="M229 140q-112 14 -156.5 53.5t-12.5 104.5q22 45 63 69.5t93 11.5q35 -7 65 -43q76 -88 49 -221q-8 -43 -73 -70.5t-130 -36t-126 -8.5q-18 0 -34.5 11t-16.5 30q0 39 50 41q6 0 32 -0.5t42 0t42.5 1.5t43.5 5t34.5 10t26 17t8.5 25zM218 229q-8 41 -37 56
q-25 14 -38.5 -9.5t10.5 -38.5q30 -19 65 -8zM271 510q-14 20 -42.5 22t-47.5 -16t-8 -47q15 -42 56 -36q34 5 47 33q10 22 -5 44zM157 510q-22 16 -53.5 14t-45.5 -19t0 -46q16 -25 44 -27t47 11q28 14 29 33q2 17 -21 34z" />
    <glyph glyph-name="qafar.medi" unicode="&#x642;" horiz-adv-x="355" arabic-form="medial" 
d="M282 82h73v-82h-40q-27 0 -84.5 8t-64.5 7q-90 -15 -162 -15h-4q-50 0 -50 41t50 41h83q-23 35 -30 70t6.5 71t49.5 63q74 55 137 22q28 -15 44.5 -43t18.5 -61q1 -11 1 -20.5t-1 -18.5t-2.5 -15.5t-4.5 -16t-5 -15t-7.5 -18t-7.5 -18.5zM155 110q25 4 37 12.5t16 27.5
q13 57 -18 69q-24 10 -45 -14q-30 -32 -1 -80q5 -7 11 -15zM261 436q-14 20 -42.5 22t-47.5 -16t-8 -47q15 -42 56 -36q34 5 47 33q10 22 -5 44zM147 436q-22 16 -53.5 14t-45.5 -19t0 -46q16 -25 44 -27t47 11q28 14 29 33q2 17 -21 34z" />
    <glyph glyph-name="kafar.fina" unicode="&#x643;" horiz-adv-x="740" arabic-form="final" 
d="M535 517q0 28 14 44.5t31.5 17.5t34 -13t21.5 -41q12 -64 28.5 -224t18.5 -173q6 -46 57 -46l-1 -82q-27 0 -48 8.5t-31 16t-13 5.5q-58 -30 -171.5 -43.5t-219.5 9.5q-59 16 -97.5 37t-65.5 60q-20 28 -32 62.5t-10.5 73t21.5 65.5q18 24 47 14q15 -6 20.5 -15t5.5 -27
q-2 -92 48 -139q28 -26 118 -38.5t173.5 -9t98.5 18.5q10 9 -2 106t-29 200.5t-17 112.5zM505 434q3 -17 -15.5 -32t-32.5 -20.5t-36 -12.5q-9 -3 -34 -11t-42.5 -15t-32.5 -16q-5 -3 -23.5 -18t-33 -21.5t-28.5 -2.5q-21 7 -24.5 31t11.5 38q18 18 40 32q13 7 13 14t-13 36
q-9 19 -14 31q-20 44 -0.5 86.5t63.5 59.5q20 8 45 -4q19 -8 20.5 -28t-16.5 -33q-50 -37 -26 -68q18 -24 45 -30q10 -2 43.5 6t59.5 6t31 -28z" />
    <glyph glyph-name="kafar.init" unicode="&#x643;" horiz-adv-x="441" arabic-form="initial" 
d="M391 562q-2 -17 -21 -35t-38 -27q-40 -18 -80 -31.5t-80 -31.5q-68 -34 -68.5 -44t52.5 -45q17 -12 56.5 -38.5t56 -39t35.5 -33.5t26 -41q15 -46 -6 -91q-24 -53 -94.5 -79t-163.5 -26h-66q-50 0 -50 41t50 41h97q65 0 106 30t27 65q-14 33 -92.5 86.5t-94.5 74.5
q-24 28 -23.5 71t33.5 67q89 65 203 104q123 42 134 -6q2 -5 1 -12z" />
    <glyph glyph-name="kafar.medi" unicode="&#x643;" horiz-adv-x="398" arabic-form="medial" 
d="M132 419q152 -106 157 -286q1 -19 6 -28.5t29.5 -16t73.5 -6.5v-82h-50q-20 0 -50.5 5t-51.5 9.5t-22 3.5q-18 -18 -222 -18q-52 0 -52 41t50 41h142q35 0 47.5 16.5t7.5 52.5q-17 99 -72 158q-11 11 -33 29.5t-31 27.5q-21 22 -27 55.5t17 59.5q36 31 138.5 71t156.5 48
q34 7 44 -21q4 -12 -1.5 -25t-19.5 -20q-63 -33 -121 -57.5t-116 -57.5z" />
    <glyph glyph-name="lamar.fina" unicode="&#x644;" horiz-adv-x="610" arabic-form="final" 
d="M560 82h50v-82q-47 0 -58 -4.5t-20 -23.5q-24 -45 -87 -84q-51 -31 -116 -34q-64 -4 -126 18t-102 67q-21 24 -36.5 59.5t-14.5 65.5q0 19 4.5 43t13.5 51t26.5 43t40.5 11q42 -8 22 -74q-29 -109 17 -164q22 -26 56 -38.5t69 -9.5q90 9 126 48q26 30 31 65q4 32 6 130
q1 40 1 120q-3 99 -3 245q0 14 3 28q4 15 15 25t25 11q12 0 25 -10.5t17 -24.5q15 -68 13 -243t2 -238z" />
    <glyph glyph-name="lamar.init" unicode="&#x644;" horiz-adv-x="225" arabic-form="initial" 
d="M0 0q-22 0 -36 11.5t-14 29.5t14 29.5t36 11.5q25 0 32.5 0.5t21.5 3.5t17.5 11t7 22t3.5 37q0 14 0.5 73.5t0.5 101.5t-1.5 93t-5.5 77q-9 62 27 89q25 19 45 0q14 -12 15 -39q1 -8 1.5 -20.5t1 -56t2.5 -98.5q1 -30 3.5 -89t3.5 -88l1 -27q0 -27 -1 -27q-2 -27 -5 -48
t-10 -36t-12 -25.5t-18 -17.5t-20.5 -10.5t-27 -5.5t-30 -2h-36.5h-16z" />
    <glyph glyph-name="lamar.medi" unicode="&#x644;" horiz-adv-x="233" arabic-form="medial" 
d="M50 0h-50q-50 0 -50 41t50 41h50q46 0 34 76q-60 433 26 436q14 0 27 -10t14 -24q4 -49 10 -155t11 -190.5t7 -97.5q4 -35 53 -35l1 -82q-30 0 -46.5 4.5t-40.5 19.5q-10 6 -12 6.5t-8 -2.5q-1 -1 -8 -6.5t-11.5 -8t-13 -6.5t-19 -5.5t-24.5 -1.5z" />
    <glyph glyph-name="meemar.fina" unicode="&#x645;" horiz-adv-x="639" arabic-form="final" 
d="M639 82v-82h-40q-30 0 -44 -18q-23 -29 -65.5 -42t-83.5 -8t-64 24q-9 7 -20 22t-21.5 22.5t-26.5 4.5q-73 -17 -101.5 -71t-33.5 -154q-1 -31 4 -74q4 -32 -27.5 -51t-50.5 12q-15 26 -15.5 75.5t4.5 78.5q9 90 40 149q48 89 132 101q22 3 30.5 12t10.5 33
q7 75 58.5 119t113 38t97.5 -60q12 -18 26 -56t19 -48q13 -27 58 -27zM505 51q9 27 -15.5 64t-51.5 55q-26 17 -52 -1t-38.5 -51t-5.5 -56q9 -30 45 -44t72 -4.5t46 37.5z" />
    <glyph glyph-name="meemar.init" unicode="&#x645;" horiz-adv-x="405" arabic-form="initial" 
d="M202 272q32 -2 58 -13q45 -20 70 -65.5t25 -97.5q0 -89 -53 -126q-27 -17 -76 -19.5t-78 9.5q-24 9 -43 19t-25.5 13t-22 5.5t-45.5 2.5h-12q-50 0 -50 41t50 41q16 0 26 11.5t19 49.5q12 49 51 90q42 41 106 39zM196 19q40 -9 55 28q22 61 -13 118q-31 50 -75 25
q-36 -21 -46 -68q-12 -60 40 -89q16 -9 39 -14z" />
    <glyph glyph-name="meemar.medi" unicode="&#x645;" horiz-adv-x="452" arabic-form="medial" 
d="M393 82h59v-82h-65q-26 0 -41.5 -8.5t-44 -17t-86.5 -8.5q-34 0 -55 9t-38 24t-29 20q-10 5 -13 4t-13 -8q-18 -15 -66 -15q-51 0 -51 41t50 41h17q38 0 45 41q2 9 5 33.5t5.5 36t9.5 29t19 30.5q46 53 105 54q104 1 145.5 -59t41.5 -165zM172 75q21 -19 58.5 -13
t54.5 24q15 16 11 39.5t-15 43t-25 34.5q-34 35 -72 4q-35 -28 -35 -75q0 -34 23 -57z" />
    <glyph glyph-name="noonar.fina" unicode="&#x646;" horiz-adv-x="628" arabic-form="final" 
d="M628 82v-82q-22 0 -38 3v-3q-6 -65 -68 -110.5t-132 -60.5q-79 -15 -157 4.5t-125 76.5q-53 65 -57.5 152t29.5 162q21 49 55 53q27 4 35 -23q7 -26 -14 -62q-53 -100 -20 -188q30 -77 101 -103t147 4q59 23 91 53.5t33 83.5q1 46 -18 109q-18 60 6 78q21 15 34 -3
t28 -62t27 -63q11 -19 43 -19zM345 155q-16 23 -43 19.5t-38.5 -25t3.5 -51.5q19 -30 46 -25.5t36.5 29.5t-4.5 53z" />
    <glyph glyph-name="noonar.init" unicode="&#x646;" horiz-adv-x="223" arabic-form="initial" 
d="M56 0h-55q-18 0 -34.5 12t-16.5 29q0 18 14 29.5t36 11.5h11h14.5t15 1t16.5 3t14.5 6.5t12.5 10.5t7.5 15.5t3.5 21.5t-2.5 32.5t-2.5 28.5q-1 13 0 26q5 32 36 35.5t36 -27.5q7 -41 10 -72t-0.5 -63t-15.5 -53t-37 -34t-63 -13zM164 395q-16 23 -43 19.5t-38.5 -25
t3.5 -51.5q19 -30 46 -25.5t36.5 29.5t-4.5 53z" />
    <glyph glyph-name="noonar.medi" unicode="&#x646;" horiz-adv-x="249" arabic-form="medial" 
d="M0 0q-22 0 -36 11.5t-14 29.5t14 29.5t36 11.5h18t19.5 2t23 8t18 15t15 26t4.5 40q0 21 1 32q2 20 4 25q4 17 15.5 28t22.5 10q25 -2 33 -38q3 -15 6.5 -40.5t7 -41t10 -32.5t19.5 -25t32 -9v-82q-40 0 -63 8t-51 33q-52 -41 -135 -41zM175 400q-16 23 -43 19.5
t-38.5 -25t3.5 -51.5q19 -30 46 -25.5t36.5 29.5t-4.5 53z" />
    <glyph glyph-name="hehar.fina" unicode="&#x647;" horiz-adv-x="482" arabic-form="final" 
d="M482 82v-82q-38 0 -59 0.5t-47 3t-39 8t-27 15t-20.5 24t-10.5 35t-4 48.5q-55 -12 -102.5 -11.5t-82 24.5t-40.5 67q-8 66 69 122.5t150 66.5q28 4 50 -12.5t29 -45.5q3 -12 6.5 -44t3.5 -34q34 13 48 17q29 11 31 -16q2 -32 -28 -63q-13 -14 -29 -21l-17 -9v-25
q0 -16 2.5 -25t12.5 -20.5t36 -17t68 -5.5zM270 291q-88 -6 -117 -46q-20 -26 3 -40q30 -20 101 9q16 7 18 34t-5 43z" />
    <glyph glyph-name="hehar.init" unicode="&#x647;" horiz-adv-x="528" arabic-form="initial" 
d="M0 0q-22 0 -36 11.5t-14 29.5t14 29.5t36 11.5h51q-20 39 -5.5 97.5t45.5 80.5q81 59 124 0q21 -30 23 -83t-14 -88q-3 -8 33 -10t76 5.5t46 24.5q20 57 -8.5 117.5t-86 92.5t-113.5 13q-46 -16 -57.5 9t29.5 53q39 28 87.5 36.5t95 -6.5t72.5 -53q88 -129 79 -273
q-3 -39 -25 -63.5t-53.5 -34.5t-82 -12t-95 1t-110.5 7t-111 4zM110 116q27 -2 44 28q18 30 -2 44q-9 7 -25 6q-19 -1 -22.5 -18.5t5.5 -59.5z" />
    <glyph glyph-name="hehar.medi" unicode="&#x647;" horiz-adv-x="378" arabic-form="medial" 
d="M36 0h-36q-50 0 -50 41t50 41h12q29 2 32 28q8 64 43.5 124.5t87.5 89.5t100 2q31 -18 51 -60t11 -95t-60 -89h101v-82h-54q18 -39 16.5 -78t-25.5 -69.5t-55.5 -49.5t-72.5 -17.5t-78 26.5q-31 21 -47.5 56.5t-19.5 59.5t-6 72zM152 85q35 -3 57 13q18 14 28.5 55
t5.5 67q-13 56 -51 20q-35 -34 -53 -94q-17 -60 13 -61zM121 0q0 -3 2 -17t3.5 -22.5t4.5 -23t6 -24.5t7.5 -21t10.5 -17.5t13 -8.5q14 -5 33.5 0.5t29.5 17.5q34 41 -1 81.5t-109 34.5z" />
    <glyph glyph-name="wawar.fina" unicode="&#x648;" horiz-adv-x="433" arabic-form="final" 
d="M276 0q-15 -7 -53 -7q-39 0 -68.5 19t-40.5 48t-9.5 59.5t23.5 57t59 37.5q73 22 120.5 -13.5t62.5 -118.5h63v-82h-50q-9 -113 -42.5 -163t-129.5 -55q-103 -6 -149 45q-20 22 -8 40t40 16q54 -4 96.5 -2.5t67 30.5t18.5 89zM278 87q-24 37 -53 38q-24 1 -22 -29
q1 -7 3 -15q9 0 32.5 2.5t39.5 3.5z" />
    <glyph glyph-name="alefMaksuraar.fina" unicode="&#x649;" horiz-adv-x="551" arabic-form="final" 
d="M550 82v-82h-20q19 -37 -7.5 -98t-91.5 -83q-50 -15 -125.5 -13t-125.5 19q-41 13 -75.5 50t-47.5 78q-15 46 2.5 93t56.5 82q16 13 33 4q19 -13 18 -32t-15 -60t-13 -64q1 -31 29.5 -52t67 -27.5t78 -8.5t63.5 5q55 14 69 43q16 32 -50 85q-5 4 -16 11.5t-16 13t-9 15.5
q-9 26 17 32q12 3 29 1q111 -12 149 -12z" />
    <glyph glyph-name="yehar.fina" unicode="&#x64a;" horiz-adv-x="551" arabic-form="final" 
d="M550 82v-82h-20q19 -37 -7.5 -98t-91.5 -83q-50 -15 -125.5 -13t-125.5 19q-41 13 -75.5 50t-47.5 78q-15 46 2.5 93t56.5 82q16 13 33 4q19 -13 18 -32t-15 -60t-13 -64q1 -31 29.5 -52t67 -27.5t78 -8.5t63.5 5q55 14 69 43q16 32 -50 85q-5 4 -16 11.5t-16 13t-9 15.5
q-9 26 17 32q12 3 29 1q111 -12 149 -12zM405 -271q-16 22 -43.5 23.5t-45.5 -12.5q-31 -20 -29 -32q3 -23 43 -38q35 -13 66.5 6.5t8.5 52.5zM291 -258q-15 23 -42.5 21.5t-48 -25t-8.5 -47.5q17 -34 48.5 -35t49 26t1.5 60z" />
    <glyph glyph-name="yehar.init" unicode="&#x64a;" horiz-adv-x="223" arabic-form="initial" 
d="M86 0h-85q-18 0 -34.5 12t-16.5 29q0 18 14 29.5t36 11.5h18.5h19.5t18.5 0.5t18.5 2t15.5 4t14.5 7t10.5 10.5t7.5 14.5t2 19.5q0 12 -2.5 32.5t-2.5 28.5q-1 13 0 26q5 32 36 35.5t36 -27.5q7 -41 10 -72t-0.5 -63t-15.5 -53t-37 -34t-63 -13zM235 -80
q-16 22 -43.5 23.5t-45.5 -12.5q-31 -20 -29 -32q3 -23 43 -38q35 -13 66.5 6.5t8.5 52.5zM121 -67q-15 23 -42.5 21.5t-48 -25t-8.5 -47.5q17 -34 48.5 -35t49 26t1.5 60z" />
    <glyph glyph-name="yehar.medi" unicode="&#x64a;" horiz-adv-x="279" arabic-form="medial" 
d="M0 0q-22 0 -36 11.5t-14 29.5t14 29.5t36 11.5q69 0 92 13q36 19 36 78q0 21 1 32q2 20 4 25q4 17 15.5 28t22.5 10q25 -2 33 -38q3 -15 6.5 -40.5t7 -41t10 -32.5t19.5 -25t32 -9v-82q-40 0 -63 8t-51 33q-52 -41 -165 -41zM239 -80q-16 22 -43.5 23.5t-45.5 -12.5
q-31 -20 -29 -32q3 -23 43 -38q35 -13 66.5 6.5t8.5 52.5zM125 -67q-15 23 -42.5 21.5t-48 -25t-8.5 -47.5q17 -34 48.5 -35t49 26t1.5 60z" />
    <glyph glyph-name=".notdef" horiz-adv-x="500" 
d="M0 0v700h500v-700h-500zM250 395l170 255h-340zM280 350l170 -255v510zM80 50h340l-170 255zM50 605v-510l170 255z" />
    <glyph glyph-name=".null" 
 />
    <glyph glyph-name="nonmarkingreturn" horiz-adv-x="333" 
 />
    <glyph glyph-name="space" unicode=" " horiz-adv-x="160" 
 />
    <glyph glyph-name="exclam" unicode="!" horiz-adv-x="178" 
d="M38 163q0 -27 22 -35.5t44 4t22 35.5l-4 344q0 95 -34 112q-24 12 -43 -23q-15 -29 -15 -74q0 -31 4 -155t4 -208zM91 91q-50 0 -56 -45q0 -60 38 -58q32 1 59 34q30 36 8 56q-14 13 -49 13z" />
    <glyph glyph-name="quotedbl" unicode="&#x22;" horiz-adv-x="474" 
d="M170 578q-55 -2 -95.5 -46t-43.5 -91q-4 -48 15.5 -82.5t64.5 -34.5q29 0 50 40q1 8 -5.5 14.5t-16 13t-18 15t-13 24t-0.5 36.5q56 -64 102 -34q32 22 34 69q1 53 -41 70q-15 6 -33 6zM370 548q-55 -2 -95.5 -46t-43.5 -91q-4 -48 15.5 -82.5t64.5 -34.5q29 0 50 40
q1 8 -5.5 14.5t-16 13t-18 15t-13 24t-0.5 36.5q56 -64 102 -34q32 22 34 69q1 53 -41 70q-15 6 -33 6z" />
    <glyph glyph-name="numbersign" unicode="#" horiz-adv-x="570" 
d="M540 337v-8q-3 -36 -138 -39l-3 -89q123 13 137 -24q10 -24 -6.5 -38.5t-47.5 -14.5h1q-60 -2 -91 -4q0 -45 -10.5 -68.5t-38.5 -30.5q-33 -1 -41 41t17 62l-81 5q-3 -65 -40 -91q-27 -20 -44 4q-11 16 -10 48l2 18q-77 -5 -106 29q-21 24 4 45q29 23 97 16q13 0 21 -1
l9 91q-141 11 -141 54q0 21 8.5 31t25 10.5t33 -2.5t39.5 -7.5t37 -5.5l-2 12q-10 107 35 111q22 1 36 -14.5t16 -39.5l-4 -73l17 -1l59 2q-2 64 7.5 93.5t42.5 35.5q22 1 30 -18.5t5 -49.5q-4 -28 -4 -54q82 11 99 11q15 0 22.5 -14t7.5 -32zM328 290l-78 -4l-8 -86h12
l38 -2l23 -2z" />
    <glyph glyph-name="dollar" unicode="$" horiz-adv-x="439" 
d="M319 360l14 -109q71 -55 71 -109v-5q0 -32 -15 -47.5t-38.5 -24t-30.5 -15.5v-30q0 -34 -23 -45q-24 -10 -38 23q-9 20 -10 53l-35 6q-6 -7 -11 -17t-8 -15.5t-11.5 -9.5t-21.5 -4q-31 0 -35 75q-5 1 -22 6.5t-28 8.5q-20 2 -32 15t-11 30q5 17 20.5 27t35.5 10
q11 0 53 -15l17 88l-16 4q-82 21 -98 30.5t-16 42.5q0 25 26 63t66 71t83 53.5t83.5 9.5t60.5 -60q27 -19 34 -25t16.5 -22t9.5 -37q-2 -22 -16.5 -36t-34.5 -14q-25 0 -39 24zM261 421q-22 0 -25 -5q-1 -3 -3 -62q-1 -17 -2 -35l34 -16q0 24 -2 53t-2.5 39.5t0.5 25.5z
M159 329l2 60q-29 -17 -50 -42zM255 218l-30 17l-15 -92q0 -13 38 -20q3 16 4 28zM342 175l-27 20l-8 -94l25 18z" />
    <glyph glyph-name="percent" unicode="%" horiz-adv-x="496" 
d="M135 245q-67 -1 -94 -26.5t2 -48t95 -17.5q0 -53 1 -71q2 -21 16 -34t35 -10q44 4 34 122q52 1 75.5 16.5t10.5 46.5q-7 28 -89 25q2 78 -30 101q-24 17 -42 -15q-16 -30 -14 -89z" />
    <glyph glyph-name="ampersand" unicode="&#x26;" horiz-adv-x="621" 
d="M405 601q-49 5 -90 -40q-37 -42 -73 -146q-140 -25 -188 -152q-28 -69 -23.5 -127t39.5 -94t96.5 -50t147.5 5q50 20 65 20q4 0 27 -7t56.5 -14t65.5 -7q23 0 40 16.5t23 44.5v5q0 21 -27 23h-78q82 96 100 143q2 26 -44 51q-19 10 -48 -27.5t-57.5 -84.5t-43.5 -52
q-22 16 -53.5 66.5t-32.5 98.5q0 15 3 48l20 -2q108 6 136 99q7 32 7 71t-18 74t-50 38zM333 413l-11 3q26 76 58 95q9 6 11 -2q1 -5 2 -24q1 -47 -15.5 -61.5t-44.5 -10.5zM122 193q21 103 111 129q-17 -203 81 -247q-29 -14 -59.5 -19.5t-57.5 0t-46.5 21t-28 45.5
t-0.5 71z" />
    <glyph glyph-name="quotesingle" unicode="'" horiz-adv-x="206" 
d="M84 556q-52 -16 -54 -56.5t59 -77.5q-55 -63 -55 -75q0 -15 13 -26.5t31 -14.5q28 0 63 66.5t35 103.5v7q0 41 -24 63.5t-68 9.5z" />
    <glyph glyph-name="parenleft" unicode="(" horiz-adv-x="277" 
d="M208 608h-6q-30 0 -95 -94q-55 -78 -69.5 -175.5t0.5 -175t48 -142.5q22 -39 51 -39q40 0 52 21.5t2.5 56.5t-23.5 84.5t-25.5 100t-3 109t43.5 105.5q88 121 53 143q-11 6 -28 6z" />
    <glyph glyph-name="parenright" unicode=")" horiz-adv-x="277" 
d="M76 599h-6q-74 0 -8 -101l33 -47q36 -49 45 -108t-3 -109.5t-26 -99.5t-24 -83.5t2 -55.5t52 -21q29 0 51 39q33 62 47.5 142.5t-0.5 177.5t-67 173q-67 93 -96 93z" />
    <glyph glyph-name="asterisk" unicode="*" horiz-adv-x="522" 
d="M492 336q-6 -53 -166 -40q3 -4 27 -30.5t41 -51t15 -37.5q-8 -22 -15.5 -31.5t-19 -10.5t-28.5 15.5t-42 49.5l1 -55q0 -16 -11.5 -28.5t-30.5 -15.5q-16 -1 -26 11.5t-12 29.5v14l12 59l14 35q-19 -27 -35 -55q-12 -29 -34 -42t-39.5 -2t-17.5 44q0 18 11.5 32.5
t25.5 24t28 24.5t18 31q-58 -3 -124 -10q-41 -4 -47.5 -1t-6.5 25v12q0 21 6.5 30t21.5 9t31.5 -4t43.5 -8.5t51 -4.5q21 0 28 2q-17 33 -45 73q-45 58 -42 74q4 18 16 30.5t28 12.5q31 0 64 -112l14 -28v45q0 18 -5 43t-9.5 42.5t-6 34.5t7.5 25.5t29 8.5h6q27 0 39 -40
l3 -47q20 34 45 33q16 -3 27 -15t11 -28v-2q0 -20 -36 -64q-39 -65 -45 -92q39 8 73.5 12.5t45.5 7.5q24 5 41.5 -5t18.5 -30z" />
    <glyph glyph-name="plus" unicode="+" horiz-adv-x="344" 
d="M135 245q-67 -1 -94 -26.5t2 -48t95 -17.5q0 -53 1 -71q2 -21 16 -34t35 -10q44 4 34 122q52 1 75.5 16.5t10.5 46.5q-7 28 -89 25q2 78 -30 101q-24 17 -42 -15q-16 -30 -14 -89z" />
    <glyph glyph-name="comma" unicode="," horiz-adv-x="205" 
d="M83 104q-31 -9 -45 -31.5t-3 -49.5t47 -48l-14 -23q-21 -27 -29 -45t0 -32.5t36 -20.5q19 -5 43 28.5t40.5 76t16.5 65.5v8q0 41 -24 63t-68 9z" />
    <glyph glyph-name="hyphen" unicode="-" horiz-adv-x="431" 
d="M202 305h-41h-21h-21.5h-19.5t-19 -1.5t-16 -4t-14 -6.5t-10.5 -9.5t-7.5 -14t-2 -18.5q0 -33 71 -37q54 -2 250 0q19 0 32.5 12t14.5 30q15 30 -35.5 40.5t-160.5 8.5z" />
    <glyph glyph-name="period" unicode="." horiz-adv-x="191" 
d="M93 104q-29 0 -46.5 -20.5t-16.5 -52.5l2 -12q19 -49 68 -29q37 15 54 50q21 42 -19 58q-16 6 -42 6z" />
    <glyph glyph-name="slash" unicode="/" horiz-adv-x="357" 
d="M296 517q-50 2 -63 -33q-166 -339 -186 -391q-17 -43 -17 -61q13 -60 86 17q76 81 148 226q82 165 58 221q-7 18 -26 21z" />
    <glyph glyph-name="zero" unicode="0" horiz-adv-x="505" 
d="M271 484q-60 13 -113.5 -29.5t-89.5 -118.5q-44 -89 -37.5 -174.5t67.5 -138.5q66 -54 147.5 -51.5t150.5 53.5q44 32 64 95.5t14 128.5t-33 109q-62 97 -170 126zM150 274q31 79 75 99.5t83.5 -10t67.5 -95.5q27 -63 -3.5 -124t-99.5 -78q-45 -12 -83.5 12.5t-51.5 74.5
t12 121z" />
    <glyph glyph-name="one" unicode="1" horiz-adv-x="167" 
d="M54 436l-24 -444q-2 -32 31 -27t54 33q9 12 9 24q0 112 6.5 244.5t6.5 153.5q0 44 -32 56q-28 11 -44 -14q-6 -11 -7 -26z" />
    <glyph glyph-name="two" unicode="2" horiz-adv-x="592" 
d="M257 482q-55 0 -116 -19q-52 -17 -71 -63q-15 -36 5 -49q20 -14 63 17q32 20 85 24q38 2 61 -5t32.5 -21.5t7 -38t-12.5 -50t-29 -61.5l-39 9q-69 17 -141 -55q-59 -57 -70 -119q-12 -61 41 -68q6 -1 13 -1h6q42 0 78.5 16.5t137.5 77.5q20 -8 50.5 -29t68.5 -38.5
t91 -24.5q19 -1 31.5 12t12.5 33v10q0 17 -13.5 30.5t-34.5 15.5q-101 18 -125 29.5t-24 41.5q0 15 22 75.5t22 110.5v11q0 55 -47.5 92.5t-104.5 36.5zM233 134q-28 -27 -47.5 -36t-49.5 -11q18 39 46 50t51 -3z" />
    <glyph glyph-name="three" unicode="3" horiz-adv-x="414" 
d="M257 487q-38 4 -91 -3t-95.5 -26.5t-40.5 -45.5l4 -14q17 -29 43.5 -35t51.5 13q32 25 94 25q40 0 37 -22q-2 -25 -49 -51q-34 -19 -74 -25q-19 -3 -32 -16t-16.5 -28.5t0 -30.5t16.5 -25t33 -9q80 25 90 25q35 3 54 -32q24 -38 9 -77t-68 -39q-19 0 -47.5 10t-51.5 20
t-44.5 16t-34 -2t-12.5 -34q0 -47 74 -72q85 -39 142 -25q83 21 115.5 81t13 124t-74.5 102q34 75 33 124l-3 16v1q-14 48 -76 55z" />
    <glyph glyph-name="four" unicode="4" horiz-adv-x="397" 
d="M287 500q-16 0 -27 -7.5t-17 -22t-9 -31.5t-3 -40t0.5 -41.5t1.5 -42t1 -36.5h-92q-15 0 -15 21q0 82 10 126q1 26 -15.5 39t-38.5 3q-22 -9 -35.5 -65.5t-15.5 -94.5t-2 -64q0 -22 14.5 -32.5t44.5 -15.5q110 10 142 9q-2 -49 -10 -107t-8 -69q0 -44 29.5 -57.5
t51.5 20.5q19 30 19 85q0 78 12 114q42 27 42 51q0 17 -12 30t-30 17q-1 1 -1 5l3 88v40q0 60 -40 78z" />
    <glyph glyph-name="five" unicode="5" horiz-adv-x="493" 
d="M95 254v-35q0 -43 55 -43q101 59 165 24q40 -23 38 -65q-2 -44 -50 -60q-40 -15 -99 -1q-143 23 -170 -7q-16 -17 21 -38q33 -18 87 -24q96 -23 125 -23h19q52 0 84 19q58 36 58 159q0 61 -47 100.5t-123 39.5h-35l-39 -3q0 7 3 24q6 35 23 49.5t62 14.5h21q80 0 117 -10
q18 -1 32.5 17.5t20.5 48.5q3 27 -63 30t-189 -9h-13q-33 0 -45 -1.5t-25.5 -8t-16.5 -23.5t-6.5 -45.5t-6.5 -75.5q0 -11 -0.5 -17.5t-1 -17t-1.5 -19.5z" />
    <glyph glyph-name="six" unicode="6" horiz-adv-x="494" 
d="M426 224q26 -27 34 -67t-4 -79.5t-59 -68t-122 -29.5q-151 -5 -194 29q-40 33 -50 98q-7 48 18 140.5t63 166.5t64 74h9q22 0 26 -27.5t-8 -62.5q-25 -74 -55 -147q-33 -77 -33 -108q0 -8 2 -24q69 90 127.5 126.5t100 28t81.5 -49.5zM286 59q88 22 96 65q6 31 -31 49
q-18 8 -41 9q-36 1 -63.5 -23.5t-58.5 -89.5l9 -2q9 -2 18.5 -3.5t29 -3t41.5 -1.5z" />
    <glyph glyph-name="seven" unicode="7" horiz-adv-x="416" 
d="M86 497q-44 6 -54 -33q-9 -34 12 -57q11 -12 27 -12l175 6h36q-9 -35 -33 -93t-43 -105t-32 -95t-2.5 -80t47.5 -43q21 -7 62 98.5t72 219t33 142.5q2 27 -25.5 41.5t-70.5 16.5t-85 0.5t-78 -4.5t-41 -2z" />
    <glyph glyph-name="eight" unicode="8" horiz-adv-x="414" 
d="M30 350q0 -28 36.5 -60.5t73.5 -51.5l36 -18q-102 -105 -68 -189q22 -54 87 -71q71 -19 124 23q55 43 55 132q0 19 -15.5 50t-30.5 52l-16 21q101 97 62 188q-27 62 -105 91q-86 32 -155 -3q-84 -43 -84 -164zM223 445q44 0 61 -26t10.5 -58t-25.5 -60t-40 -31
q-33 -5 -68.5 39t-24.5 90t87 46zM239 183q6 0 13.5 -11.5t12 -28t5 -33t-9 -28t-28.5 -11.5q-29 0 -36.5 28t6.5 56t37 28z" />
    <glyph glyph-name="nine" unicode="9" horiz-adv-x="424" 
d="M277 470q-117 0 -181 -54t-66 -127q-1 -30 24 -51.5t61.5 -28.5t76.5 -10t69 4q-30 -160 -30 -182q0 -16 13.5 -27.5t32.5 -11.5h1q21 1 47 56.5t43 127.5t24.5 141.5t-8.5 99.5q-27 63 -107 63zM124 316q5 21 44.5 42t73 26t44.5 -3l-13 -91q-14 -11 -52.5 -14t-70.5 7
t-26 33z" />
    <glyph glyph-name="colon" unicode=":" horiz-adv-x="190" 
d="M92 347q-28 0 -45.5 -20.5t-16.5 -52.5l2 -12q17 -48 64 -32q36 13 55 49q23 42 -13 60q-17 8 -46 8zM97 152q-29 0 -46.5 -20.5t-16.5 -52.5l2 -12q6 -18 24.5 -28.5t41.5 -9.5l15 2q30 12 39 41.5t-8 54.5t-51 25z" />
    <glyph glyph-name="semicolon" unicode=";" horiz-adv-x="209" 
d="M105 347q-28 0 -45.5 -20.5t-16.5 -52.5l2 -12q17 -48 64 -32q36 13 55 49q23 42 -13 60q-17 8 -46 8zM87 130q-51 -15 -53 -58t58 -76l-54 -75q-20 -28 7 -40q27 -13 57 6q16 9 23 26q54 102 54 137v7q0 41 -24 63.5t-68 9.5z" />
    <glyph glyph-name="less" unicode="&#x3c;" horiz-adv-x="427" 
d="M163 207l114 34l40 17q77 37 80 69v6q0 22 -22 29.5t-52 0.5q-38 -21 -120.5 -56.5t-127.5 -61t-45 -46.5q0 -12 7.5 -22.5t20.5 -14.5l297 -97q19 -2 30 15t11 42v23z" />
    <glyph glyph-name="equal" unicode="=" horiz-adv-x="433" 
d="M204 323h-41q-10 0 -28 0.5t-27.5 0.5t-23.5 -1t-22 -4t-15.5 -9t-11 -16t-3.5 -24q0 -35 70 -37q55 -1 251 0q20 0 33 11.5t14 30.5q15 30 -36 40t-160 8zM202 204h-41q-10 0 -28 0.5t-27.5 0.5t-24 -1t-21.5 -4.5t-15 -9.5t-11.5 -16t-3.5 -24q0 -16 20.5 -25.5
t50.5 -10.5q46 -3 251 -1q20 0 33 12.5t14 30.5q8 16 -2.5 26.5t-39 15t-64.5 6t-91 0.5z" />
    <glyph glyph-name="greater" unicode="&#x3e;" horiz-adv-x="429" 
d="M265 239l-233 -85q0 -25 11.5 -41.5t30.5 -15.5l296 97q42 15 30 47q-14 34 -72 51q-12 3 -24 5q-49 18 -199 98q-65 16 -74 -14q-8 -28 40 -66q17 -13 40 -25l39 -17z" />
    <glyph glyph-name="question" unicode="?" horiz-adv-x="419" 
d="M94 564q-64 -30 -64 -69q0 -36 12 -47.5t34 -4t45.5 20.5t54 26.5t51.5 13.5q64 -7 69 -49q2 -18 -0.5 -29.5t-13 -19.5t-19.5 -11t-30 -9q-9 -3 -14 -4q-43 -12 -74 -57q-29 -42 -32 -153q0 -33 24 -47.5t48 -0.5t24 48v1q-3 57 10.5 82.5t69.5 44.5q100 37 100 124
q1 64 -28 105.5t-73.5 55t-95.5 8.5t-98 -29zM168 104q-28 0 -45 -20t-17 -52l1 -12q14 -38 66 -38l15 1q31 12 40 41.5t-8 54.5t-52 25z" />
    <glyph glyph-name="at" unicode="@" horiz-adv-x="838" 
d="M343 559q-79 -17 -138.5 -64t-107.5 -144q-31 -64 -47 -114.5t-18 -74.5t-2 -63q0 -61 38 -68q29 -5 49 21q9 12 10 27q8 58 13 111q12 119 87 203t190 84q113 0 210 -97q35 -36 57 -79t27.5 -81.5t-1.5 -70.5t-30 -50t-58 -15q-27 0 -31 38q0 83 -2.5 128t-8 79
t-20 46.5t-32.5 17.5t-52 5q-92 0 -171 -82q-75 -76 -82 -163q-9 -103 89 -147q36 -16 82 -23q228 -11 321 25.5t93 141.5q0 108 -47 206t-149 156q-137 77 -269 47zM489 273q-7 -116 -16 -143q-17 -50 -69 -53q-64 27 -74 96q-9 62 27 101q45 49 118 8q7 -4 14 -9z" />
    <glyph glyph-name="A" unicode="A" horiz-adv-x="456" 
d="M190 520q-58 -215 -82 -288q-7 -19 -27 -67q-52 -120 -49 -156t49 -27q18 4 52 76t50 130l125 5q23 -55 44 -156q5 -25 19 -40t30 -11q17 5 23.5 29t-1.5 53q-15 53 -44 166q-61 240 -92 303q-50 99 -97 -17zM292 270q-40 -9 -101 -9q25 95 38 188q3 23 4.5 23t6.5 -21
q20 -91 52 -181z" />
    <glyph glyph-name="B" unicode="B" horiz-adv-x="476" 
d="M336 331q74 -25 98.5 -88t-1.5 -127t-85 -97q-50 -29 -122.5 -39t-128 8.5t-55.5 63.5q0 6 2 59t3 106t0 127q-1 68 -16 189q-5 41 20.5 56.5t109.5 11.5q114 -5 173.5 -44.5t58 -99t-56.5 -126.5zM127 489l11 -158q105 23 147.5 65.5t3.5 77t-142 35.5q-10 1 -15.5 -4.5
t-4.5 -15.5zM140 179v-83q0 -41 49 -43q56 -2 111 41q59 46 57 107q-2 53 -63 57t-152 -27z" />
    <glyph glyph-name="C" unicode="C" horiz-adv-x="449" 
d="M49 327q-15 -84 -19 -133.5t10.5 -100t54.5 -81.5t118.5 -33.5t140 15.5t64.5 40q3 23 -8.5 38.5t-32.5 13.5q-14 -3 -40.5 -8t-35 -6.5t-27 -5t-25 -3.5t-19.5 -1t-19 0.5t-16.5 4t-19 6.5t-18.5 9q-52 26 -31 159q18 117 66 200q39 65 67 44q21 -16 32.5 -51t26.5 -38
q39 -8 51.5 15t4.5 55q-27 123 -103 126q-66 3 -135 -79t-87 -186z" />
    <glyph glyph-name="D" unicode="D" horiz-adv-x="507" 
d="M56 211q0 -71 -7 -114q-8 -53 20.5 -84t75.5 -31h1q186 11 263 94q49 52 62.5 129t-6 146.5t-60.5 114.5q-127 140 -318 130q-14 -1 -23 -10.5t-13 -28.5t-5 -42t0.5 -58.5t3.5 -70t4 -83.5t2 -92zM395 278q9 -79 -62.5 -144.5t-162.5 -65.5q-24 0 -28 11.5t-4 75.5
q1 132 -5 259q-4 83 53 87q53 4 118 -55q78 -73 91 -165v-3z" />
    <glyph glyph-name="E" unicode="E" horiz-adv-x="432" 
d="M319 80q36 2 59.5 -8t23.5 -31v-3q0 -55 -149 -48q-39 2 -72.5 2.5t-66 -0.5t-43.5 -1q-33 0 -39 47.5t3 142.5q3 48 4 76v117q-2 32 -5 81q-6 73 -1 95t33 22q40 0 227 10l36 2q13 0 23 -13t14 -31v-10q0 -40 -97 -40q-81 0 -121 1q-19 1 -21 -19q-1 -39 -3 -108l141 16
q56 0 55 -29q-1 -26 -44 -48q-40 -20 -91 -20l-62 -2l-1 -122q0 -21 1.5 -34t4 -23t11 -15t16 -8t26 -3t33.5 0.5t46.5 2t58.5 1.5z" />
    <glyph glyph-name="F" unicode="F" horiz-adv-x="395" 
d="M107 565q-31 0 -49.5 -21.5t-18.5 -56.5q-16 -384 1 -473q6 -31 28.5 -25t31.5 37l2 12l23 231l1 17q31 10 70 10h79q68 0 83 51q1 14 -14.5 22t-40.5 11t-62 3h-91q-20 0 -20 20l1 42q0 15 9.5 25.5t24.5 11.5h80q61 -1 90 5.5t30 25.5q0 30 -18 46.5t-52.5 19t-68 0
t-81.5 -8.5q-26 -4 -38 -5z" />
    <glyph glyph-name="G" unicode="G" horiz-adv-x="563" 
d="M40 140q19 -97 122 -142q94 -42 192 -17q96 24 123 97q15 43 1 97q53 5 55 49q-2 77 -102 72q-81 -4 -161 -49q-61 -35 -49 -56q8 -16 61 -16h31q86 -2 87 -42q2 -32 -46 -61q-63 -39 -126 -20q-79 24 -104 137q-19 87 23.5 170.5t98.5 119t75 7.5q6 -9 15.5 -25.5
t14 -23t13 -12.5t19.5 -6q50 0 53 42t-38 82q-39 38 -90 38l1 -1q-89 5 -160 -58.5t-101.5 -168t-7.5 -213.5z" />
    <glyph glyph-name="H" unicode="H" horiz-adv-x="441" 
d="M352 590q-21 0 -32 -18.5t-9 -46.5q13 -222 13 -231q-1 -19 -12 -21q-2 0 -6 -1q-71 -8 -156 -11q-16 -1 -19 6t-2 116v46q0 86 -41 117q-28 20 -47 -3q-11 -15 -11 -42q9 -112 5 -203.5t-2.5 -171.5t17.5 -110q8 -16 33 -16q34 2 38 27q5 26 3 56.5t2.5 57t19.5 27.5
l157 15q21 2 25 -29t-2 -69.5t0 -70.5t30 -32q55 6 55 47q-7 61 -15 462q-2 99 -44 99z" />
    <glyph glyph-name="I" unicode="I" horiz-adv-x="442" 
d="M132 551l-53 2q-18 0 -31.5 -12.5t-17.5 -31.5q-1 -14 13 -24t34 -12q19 -1 75 2q26 0 36.5 -102t2 -204.5t-29.5 -102.5l-25 1q-38 0 -61.5 -13t-23.5 -37q0 -30 79.5 -35.5t229.5 6.5q23 2 38 15.5t14 31.5q-3 20 -23 30t-47 7q-26 -3 -41.5 -3.5t-25.5 3t-14 8.5
t-4.5 18.5t1 26t3.5 37.5t3 47q1 27 -1 68.5t-4 74.5t-2 64.5t5.5 48.5t17.5 16l14 -1q38 -2 62 6t23 27q0 24 -16 36.5t-43 10.5q-41 -5 -188 -9z" />
    <glyph glyph-name="J" unicode="J" horiz-adv-x="506" 
d="M131 565q-21 -5 -27.5 -26.5t4.5 -40.5t32 -19l111 20q17 4 26 -26q11 -36 12 -195v-16q1 -82 -4 -121.5t-25 -54.5t-52.5 -1.5t-93.5 53.5q-25 17 -48.5 20t-30.5 -11l-3 -7q-7 -28 8 -46q29 -36 86 -72q35 -21 68.5 -31.5t67 -10t60 24t40.5 68.5q27 90 3 433l60 5
q23 2 37 16.5t11 33.5q-5 33 -20 31q-119 -4 -322 -27z" />
    <glyph glyph-name="K" unicode="K" horiz-adv-x="477" 
d="M77 592q-25 -1 -36 -22.5t-5 -53.5q6 -36 -2 -240t5 -264q6 -30 30 -23q24 6 32 36l2 8l30 197q8 54 213 -200q16 -19 45 -23.5t46.5 12.5t3.5 50q-11 28 -94 104.5t-134 112.5q69 49 138.5 135.5t84.5 121.5q2 19 -11 33t-33 14q-38 0 -70 -60v1q-30 -35 -77 -91
q-68 -82 -85 -91q-19 -11 -25 26q-6 30 -6 163q0 24 -14.5 39.5t-37.5 14.5z" />
    <glyph glyph-name="L" unicode="L" horiz-adv-x="473" 
d="M75 607h-1q-24 -3 -34.5 -32.5t-9.5 -83t6 -110t10.5 -132.5t4.5 -131q0 -31 4 -54t13.5 -39t19.5 -26.5t29.5 -16t37.5 -8t48 -2.5t56 1t68 2.5t77 1.5q21 0 30 17t9 35q0 20 -16.5 33t-39.5 13l-248 11q-9 1 -12.5 16t-4 55t0.5 84.5t2 131.5t1 169q0 28 -14 46.5
t-37 18.5z" />
    <glyph glyph-name="M" unicode="M" horiz-adv-x="543" 
d="M471 488q-1 -50 42 -456v-10q0 -16 -13 -27t-33 -13h-9q-49 4 -59 240q-3 78 -10 153q-95 -215 -109 -239q-26 -48 -44 -34q-13 11 -48 100q-9 23 -15 37q-17 42 -36 85q-6 -179 -17 -254t-40 -75h-8q-18 3 -30 15.5t-12 28.5q13 147 21 322v31l-7 121q0 30 13 49.5
t34 19.5q36 0 62 -63q1 -3 10.5 -35.5t25.5 -71t42 -82.5q25 -42 39 -8q93 210 151 252q40 28 48 -46q2 -18 2 -40z" />
    <glyph glyph-name="N" unicode="N" horiz-adv-x="426" 
d="M354 580q-48 -1 -46 -65q10 -342 6 -365q-3 -17 -14 3l-6 12l-158 346q-11 34 -37 44t-47.5 -6t-21.5 -48q0 -1 4.5 -58t11 -173.5t10.5 -252.5q5 -39 34.5 -49t45.5 21q11 21 9 55q-6 56 -12 150q-2 93 7 93q4 0 16 -21q84 -166 108 -210q35 -69 65 -62q32 3 47 33
q12 22 18.5 158.5t-3.5 266.5t-37 128z" />
    <glyph glyph-name="O" unicode="O" horiz-adv-x="519" 
d="M60 396q-30 -73 -29.5 -165t23.5 -145q43 -103 195 -99q43 2 77.5 13.5t68.5 38t57.5 77.5t32.5 123q10 81 -8 146.5t-54.5 103t-86 52.5t-100 5t-98 -49t-78.5 -101zM123 315q16 54 46 90t63 49t66.5 5.5t58 -33.5t35.5 -74.5t2 -111.5q-8 -54 -27.5 -89t-46 -49
t-58.5 -18.5t-65 3.5q-37 6 -59.5 46.5t-23.5 88.5t9 93z" />
    <glyph glyph-name="P" unicode="P" horiz-adv-x="440" 
d="M224 593q37 3 71.5 -8t64 -35.5t43 -70t4.5 -104.5q-19 -122 -264 -155q2 -179 -4 -206q-5 -28 -27 -31q-5 -1 -12 -1h-1q-23 0 -30.5 2.5t-12.5 19.5t-3 50t7 99q3 32 4 51v9q-4 2 -10.5 4.5t-7.5 2.5q-16 16 -16 32v4q0 20 34 47q5 23 5 44v35q-1 28 -5.5 62.5
t-6.5 51.5t1 35.5t17 29t41 17.5q35 8 108 15zM166 302q78 7 125 42t36 99q-7 43 -46.5 63t-78.5 14.5t-50 -24.5q-19 -32 -15.5 -114t29.5 -80z" />
    <glyph glyph-name="Q" unicode="Q" horiz-adv-x="501" 
d="M356 557q-49 22 -97 21.5t-91 -29.5t-74.5 -73.5t-49 -111.5t-13.5 -142q4 -84 36.5 -138.5t79 -72t93.5 -16.5t87 20q15 7 27 -7q29 -32 63.5 -24t25.5 50t-26 48q26 23 40.5 89.5t13 141t-30.5 145.5t-84 99zM126 207q-8 105 12 167q22 68 79.5 100t109.5 -9
q42 -37 55 -130.5t-10 -154.5q-4 -11 -12.5 -11.5t-16.5 9.5q-86 107 -122 115q-26 5 -3 -54q19 -48 64 -126q13 -20 2 -24q-50 -19 -100.5 9t-57.5 109z" />
    <glyph glyph-name="R" unicode="R" horiz-adv-x="425" 
d="M30 529l5 -488q0 -40 35 -52q32 -11 50 12q9 11 9 28v182q0 42 24 44q27 2 54 -54q20 -43 32 -109q13 -77 63 -109q37 -24 57 -3q15 17 7 53q-3 15 -38 91t-57 154q20 14 30 20q26 18 56.5 58t36.5 76q7 49 -35.5 104.5t-121.5 55.5q-96 0 -152 -12.5t-55 -50.5zM218 511
q83 0 89 -50q7 -54 -56 -104q-52 -42 -94 -39q-28 4 -30 30q0 18 -1 47q-3 82 9 97.5t83 18.5z" />
    <glyph glyph-name="S" unicode="S" horiz-adv-x="427" 
d="M221 593q-61 6 -116 -51t-58 -123q-1 -17 3 -32t9 -25.5t18.5 -22.5t22 -18.5t30 -17.5t32 -15.5t39 -17t40.5 -17.5q73 -33 62 -108q-7 -48 -35 -64.5t-59 -8.5t-62 30q-81 57 -109 32q-20 -19 4 -61q34 -58 111 -82q31 -10 65 -11q174 -7 179 174q1 51 -19 92.5
t-54.5 68t-66 42t-67.5 26.5q-46 16 -49 52q-2 40 33.5 61.5t61.5 -10.5q21 -26 45 -31t39 17q25 37 -10.5 76t-88.5 45z" />
    <glyph glyph-name="T" unicode="T" horiz-adv-x="481" 
d="M54 590q-23 0 -36 -23t-5 -46.5t34 -23.5l147 -4h2q13 -1 16 -12q5 -16 8 -159q2 -167 6 -306q1 -27 34 -45q36 -19 54 3q8 10 8 30q-3 140 -9 311q-5 155 1 168q3 7 16 7h2q176 3 158 56q-11 35 -50.5 41.5t-185.5 4.5q-119 -2 -200 -2z" />
    <glyph glyph-name="U" unicode="U" horiz-adv-x="422" 
d="M30 542v-11q0 -50 2.5 -142.5t12 -214t24.5 -145.5q26 -48 106 -45q87 1 127 54q9 -30 44 -30h4q40 0 42.5 41t-17 169.5t-22.5 239.5q2 75 -30 109q-26 27 -47 -5q-5 -7 -9 -17q-8 -24 -3 -98q5 -78 5 -184q-6 -135 -26 -165q-18 -28 -55.5 -27.5t-48.5 34.5
q-16 45 -16 431q3 31 -20.5 43.5t-48 1t-24.5 -38.5z" />
    <glyph glyph-name="V" unicode="V" horiz-adv-x="557" 
d="M488 583q-42 -10 -54 -47q-28 -80 -61 -168q-78 -186 -91 -208q-20 -34 -33 -10q-8 14 -41 135q-29 106 -60 195q-14 43 -31.5 67.5t-37.5 23.5h-1q-21 -2 -34.5 -14.5t-13.5 -29.5q0 -12 15 -64t61.5 -168t111.5 -249q39 -79 73 -52q31 24 90 173l22 56q72 188 97 229
q28 49 27 80q-3 23 -13.5 38t-25.5 13z" />
    <glyph glyph-name="W" unicode="W" horiz-adv-x="647" 
d="M557 585q-66 -38 -97 -312l-1 -165q-16 2 -67 278q-36 215 -121 11q-33 -79 -76 -224q-14 160 -45.5 281t-73.5 113q-19 -4 -31.5 -15.5t-14.5 -27.5v-3q0 -26 35 -136q32 -104 52 -229q20 -132 64 -160q35 -23 61 40q11 26 18 64q45 201 56 221q10 17 20 -20
q0 -1 36 -189q3 -16 6 -31q19 -66 64 -93q40 -23 59 7q8 13 9 35v-1q40 363 73 429q49 101 28 131q-12 18 -54 -4z" />
    <glyph glyph-name="X" unicode="X" horiz-adv-x="584" 
d="M472 596q-34 2 -51 -29l1 1l-131 -209q-17 -27 -62 39q-11 15 -33 50q-61 97 -90 116q-11 8 -21 8q-100 0 -15 -112q25 -32 65 -75q68 -75 93 -114q-122 -166 -146 -214q-38 -75 19 -75h7q9 5 16.5 10.5t14 10.5t14 13.5t12.5 13t14 17t13 18t15.5 22.5t16.5 25t20 31
t22 34q14 20 57.5 -19.5t97 -104.5t64.5 -75t33.5 -6.5t31.5 17.5t-7 36l-213 240q166 238 177 263q3 6 3 9q0 48 -38 59z" />
    <glyph glyph-name="Y" unicode="Y" horiz-adv-x="453" 
d="M246 364q-6 -13 -14.5 -13t-13.5 13q-99 206 -131 206q-27 0 -47 -25.5t-3 -42.5q74 -74 113 -158t40 -121l6 -223v-1q2 -21 16 -28t47 -1h1q22 5 23 74t-9 181q22 42 53 100.5t45 84.5t29 58t19.5 48t2.5 27l-2 13q-23 44 -57 22q-31 -22 -118 -214z" />
    <glyph glyph-name="Z" unicode="Z" horiz-adv-x="605" 
d="M60 518q0 -57 55 -62l227 13q12 1 16.5 -6t-1.5 -17q-46 -75 -135 -194t-116 -140q-112 -86 -56 -107q33 -13 184 -9q80 3 120 2q56 0 97 2.5t71 9t43 18t9 27.5q-12 54 -125 39q-29 -4 -79 -10q-147 -20 -157.5 -7t71.5 109q36 42 58 68q168 201 172 256v11
q0 35 -112 48.5t-225.5 -1.5t-116.5 -50z" />
    <glyph glyph-name="bracketleft" unicode="[" horiz-adv-x="387" 
d="M285 611q-164 5 -180 4q-35 -4 -41 -26q-2 -8 0 -75q1 -54 -5 -107q-3 -69 -7.5 -132.5t-9.5 -99.5t-7.5 -70t-5 -47.5t3.5 -27t12 -15t26 -5t40 -2.5t59.5 -2t80.5 -9q44 -5 72.5 6t33.5 37q-4 22 -10 34t-15 17t-27 5t-37 -1.5t-55 -3t-71 -0.5q-10 3 -10 21l16 296
l4 102l73 4q71 3 101 42q22 28 -1 45q-14 10 -40 10z" />
    <glyph glyph-name="backslash" unicode="\" horiz-adv-x="428" 
d="M30 499q0 -23 148 -264t173 -255q39 -22 46 20q10 54 -35 141l-27 45q-125 188 -208 322q-9 25 -32.5 34t-44 -3t-20.5 -40z" />
    <glyph glyph-name="bracketright" unicode="]" horiz-adv-x="387" 
d="M102 611q-49 0 -51 -29q-1 -28 39 -50q32 -16 72 -18l73 -4l4 -102l16 -296q0 -18 -10 -21q-35 -1 -71 0.5t-55 3t-37 1.5t-27 -5t-15 -17t-10 -34q5 -26 33.5 -37t72.5 -6q41 6 80.5 9t59.5 2t40 2.5t26 5t12 15t3.5 27t-5 47.5t-7.5 70t-9.5 99.5t-7.5 132.5
q-7 59 -4 133q2 60 -16.5 69t-137.5 4q-14 0 -22 -0.5t-21 -1t-25 -0.5z" />
    <glyph glyph-name="asciicircum" unicode="^" horiz-adv-x="265" 
d="M135 588l-11 -4q-2 -1 -13.5 -9t-19.5 -14.5t-20.5 -17t-20.5 -19t-14 -19t-6 -19.5v-7q19 -41 105 33q72 -54 94 -28q16 20 -5 56q-30 47 -82 48h-7z" />
    <glyph glyph-name="underscore" unicode="_" horiz-adv-x="515" 
d="M259 71q-229 13 -229 -42v-7q4 -22 21.5 -35.5t41.5 -13.5q58 0 128.5 -6t111.5 -10t79.5 -2.5t55.5 17.5t17 49q0 23 -53 33t-173 17z" />
    <glyph glyph-name="a" unicode="a" horiz-adv-x="455" 
d="M415 67q10 -12 10 -26q0 -46 -43 -49t-74 38q-67 -46 -126 -45.5t-103 36.5q-45 37 -49 111.5t24 137.5q20 49 54.5 85.5t73 54t77.5 12t68 -33t42.5 -89t3.5 -148.5v-15q0 -33 42 -69zM168 314q-20 -17 -39 -54t-25 -75q-10 -67 28.5 -96.5t94.5 -15.5q31 8 45.5 26.5
t14.5 62.5q0 177 -44 188q-25 6 -75 -36z" />
    <glyph glyph-name="b" unicode="b" horiz-adv-x="467" 
d="M79 572h-8q-21 0 -29 -15t-7.5 -50.5t4.5 -94t6.5 -146t-1.5 -205.5q3 -35 34 -54t76 -21t89 3.5t80 16.5q76 23 102.5 95.5t-9.5 174.5q-17 45 -54 71t-79 31t-82.5 -1.5t-69.5 -22.5q-4 29 -4 99q-2 119 -48 119zM138 117q1 19 -0.5 46.5t-1.5 42t4.5 32t18 29.5
t37.5 22q37 13 68 12t54.5 -29.5t30.5 -82.5q9 -75 -62 -107q-55 -25 -109 -8q-39 14 -40 43z" />
    <glyph glyph-name="c" unicode="c" horiz-adv-x="401" 
d="M108 351q-42 -45 -61.5 -97t-16 -98.5t21.5 -86t52.5 -64.5t77.5 -29q69 -7 126.5 23t62.5 73q-1 31 -23.5 34t-50.5 -17q-37 -26 -79 -26q-39 0 -67.5 24.5t-31.5 63.5q-3 42 28 97t63 63q21 4 42 0.5t37 -10.5t32.5 -3.5t29.5 20.5q14 21 -7.5 41.5t-66.5 37.5
q-91 37 -169 -46z" />
    <glyph glyph-name="d" unicode="d" horiz-adv-x="454" 
d="M325 449q3 -59 1 -97q-30 14 -71 18t-83 -3.5t-77.5 -36t-49.5 -73.5q-32 -102 -0.5 -174t109.5 -91q37 -9 80.5 -11.5t87 2.5t72.5 25t30 53v1l-7 216q-5 128 4 233q-3 25 -14.5 42.5t-27.5 18.5q-27 -1 -39.5 -17t-14.5 -39t0 -67zM288 72q-21 -9 -51 -6.5t-58 10.5
t-46.5 33.5t-15.5 64.5q6 80 46.5 104.5t101.5 3.5q48 -17 65 -65t3 -92t-45 -53z" />
    <glyph glyph-name="e" unicode="e" horiz-adv-x="441" 
d="M290 403q-101 24 -178.5 -41.5t-81.5 -186.5q-4 -130 90.5 -174.5t191.5 -18t99 67.5q-2 18 -20.5 26.5t-42.5 4.5q-48 -10 -117 -11q-55 -2 -87 34t-30 84q59 4 223 1q26 -1 43.5 24t11.5 59q-19 110 -102 131zM172 269q-25 1 -23 12q3 16 39 27q62 20 100 -16
q26 -26 -10 -28q-2 0 -94 4q-6 1 -12 1z" />
    <glyph glyph-name="f" unicode="f" horiz-adv-x="370" 
d="M277 584q-78 5 -120 -31q-29 -26 -37.5 -82t-1.5 -99l-67 -6q-19 -1 -32.5 -21t-7.5 -39.5t36 -20.5q68 -3 73 -7q4 -3 5 -18q5 -112 4.5 -142t-7.5 -71q-6 -30 5 -50.5t36 -20.5q51 0 49 81q0 25 -2 61.5t-3 61.5t-0.5 49.5t6 37.5t16.5 14l78 3q14 0 24 8t13 19.5
t1.5 23t-9.5 20t-20 9.5l-104 9q0 23 -3 56q-4 31 12.5 52t34.5 20.5t26 -9.5q17 -38 51 -54q37 -18 45 16q2 8 2 18q0 49 -30 79.5t-73 32.5z" />
    <glyph glyph-name="g" unicode="g" horiz-adv-x="438" 
d="M274 407q-74 1 -153 -59q-40 -30 -65 -89t-26.5 -119t40.5 -107t125 -51q67 0 119 25q16 -163 -28 -181q-53 -19 -98 -8t-45 37q0 24 -13.5 47t-31.5 22q-19 -3 -25 -21t-6 -52q0 -60 68.5 -98t167.5 -21q62 11 84 110.5t20 360.5l1 133q0 28 -25 45t-52 21.5t-57 4.5z
M288 320q34 0 39 -63t-24 -126.5t-78 -63.5q-80 0 -104 61q-22 55 15 114q44 71 136 77z" />
    <glyph glyph-name="h" unicode="h" horiz-adv-x="453" 
d="M89 569q-22 6 -39 -6t-20 -35q20 -430 23 -456q6 -68 24 -79q7 -4 20 -6q33 -9 44.5 16.5t8.5 79.5q0 3 -3.5 28.5t-1.5 51.5t13 53q18 44 48 64t57 15t46.5 -28.5t19.5 -58.5q0 -28 4 -94.5t3 -104.5q0 -26 22 -33.5t43.5 3.5t21.5 29q0 215 -30 289q-19 46 -65 63
t-99.5 5t-103.5 -46q2 128 -5.5 187t-30.5 63z" />
    <glyph glyph-name="i" unicode="i" horiz-adv-x="168" 
d="M85 542q-25 0 -40.5 -17.5t-14.5 -45.5l1 -11q11 -34 58 -34l12 1q27 10 35 36t-6.5 48.5t-44.5 22.5zM87 391q-18 0 -30 -14t-12 -35v-168l4 -169q0 -23 21.5 -32.5t42.5 0t21 32.5l-1 299q0 39 -12 63t-34 24z" />
    <glyph glyph-name="j" unicode="j" horiz-adv-x="223" 
d="M131 558q-24 0 -38 -17t-14 -43l2 -9q11 -33 54 -33l12 2q25 10 32.5 34.5t-6 45t-42.5 20.5zM144 382h-11q-28 0 -39 -46t-8.5 -116t7 -142.5t3.5 -137t-14 -87.5q-20 -35 -58 -40t-68.5 15.5t-32.5 52.5q-5 84 -34 84q-19 1 -32 -35q-21 -58 13 -116q12 -22 32 -40
q59 -53 122.5 -58t115.5 41q53 47 53 219l-5 359q0 20 -12.5 33.5t-31.5 13.5z" />
    <glyph glyph-name="k" unicode="k" horiz-adv-x="356" 
d="M30 472l2 -467q0 -20 18.5 -31t37.5 -5t21 28t3.5 45t2.5 42q4 74 9 92.5t20 1.5t52 -93q23 -49 49 -75t46 -22q20 5 28.5 16t5.5 28.5t-11 36.5t-24 44.5t-31 47.5t-34 50.5t-31 49.5q88 64 88 95q0 18 -12.5 32t-32.5 19q-24 3 -68 -54q-36 -46 -42 1q-1 8 0 108
t-29 100q-14 0 -25 -2.5t-18 -5.5t-12 -10.5t-7.5 -11.5t-4 -14.5t-1.5 -14.5v-16v-15z" />
    <glyph glyph-name="l" unicode="l" horiz-adv-x="151" 
d="M66 544q-14 0 -24 -11t-12 -28v-22q5 -156 8 -329q2 -97 4 -119.5t12 -31.5q12 -12 27 -17.5t27.5 0t12.5 25.5l-1 65l-7 394q0 36 -12 55.5t-35 18.5z" />
    <glyph glyph-name="m" unicode="m" horiz-adv-x="586" 
d="M80 390q-14 0 -23.5 -5.5t-14 -13t-6.5 -21.5t-2 -23.5t0.5 -27.5t0.5 -26l-5 -233q2 -32 20.5 -48t45.5 -9q21 8 25.5 66t6.5 230q0 15 31.5 25.5t55.5 -10.5q17 -18 22.5 -65t4.5 -91.5t8 -79.5t32 -35q33 0 47 31.5t15.5 74.5t4.5 85.5t24 67t64 15.5q37 -8 29 -207
q-2 -104 34 -108h8q18 0 30 6q15 7 17.5 58t-1.5 140q-3 82 -28.5 133.5t-61.5 66t-76.5 2.5t-74.5 -50q-11 -12 -43.5 8t-68.5 37t-87 -9q-12 16 -34 16z" />
    <glyph glyph-name="n" unicode="n" horiz-adv-x="425" 
d="M64 404q-29 -1 -32 -55t7 -155.5t8 -152.5q2 -25 16.5 -39.5t36.5 -12.5l11 3q29 9 34.5 42.5t-1 84t-4.5 66.5q13 74 55 99q69 42 95 -16q12 -32 11 -224q4 -30 19.5 -47.5t38.5 -13.5q30 6 35 84t-9 162t-34 111q-22 28 -55 39t-62.5 8t-54.5 -15q-20 -10 -43 -35
q-7 -6 -10 2q-2 5 -6 21l-4 14q-9 28 -52 30z" />
    <glyph glyph-name="o" unicode="o" horiz-adv-x="426" 
d="M253 405q-88 0 -155.5 -72.5t-67.5 -156.5q0 -51 16 -92q52 -102 152 -102q76 0 137 65.5t61 156.5q0 80 -37 136t-106 65zM115 156q0 86 60 132q48 37 93 18q50 -20 50 -94q0 -83 -61 -125q-50 -35 -96 -16q-46 20 -46 85z" />
    <glyph glyph-name="p" unicode="p" horiz-adv-x="415" 
d="M180 405q-82 -3 -94 -6q-34 -9 -45 -51q-12 -47 -7 -262q5 -243 6 -336q1 -20 14.5 -35t33.5 -16q32 -2 38 45.5t2 193.5q-1 36 -1 55q98 -8 174 26q32 13 53 47t28 76t-1.5 87.5t-31 84t-66.5 64t-103 27.5zM120 288q10 31 64 32q105 -7 117 -96q12 -90 -17 -116
t-146 -26q-18 0 -21 41.5t3 164.5z" />
    <glyph glyph-name="q" unicode="q" horiz-adv-x="421" 
d="M248 291q20 -14 23 -64t-12 -94t-40 -43q-83 3 -96 69q-11 53 25 103q35 51 80 38q10 -2 20 -9zM191 394q-70 -13 -120 -104t-39 -180q13 -95 77.5 -125.5t145.5 30.5q0 -40 1.5 -72.5t5.5 -80t13.5 -82t24.5 -66.5t40 -46.5t58 -9.5q77 15 118 101q29 63 20 107
q-9 38 -40 16q-25 -17 -58 -69q-55 -88 -80 -25q-14 37 -14 117q-3 59 -1 115t3.5 107.5t1.5 96t-8.5 79t-24.5 57.5t-47 32t-77 2z" />
    <glyph glyph-name="r" unicode="r" horiz-adv-x="338" 
d="M51 17v-1q9 -44 34 -42t45 46q16 37 15 82q-1 19 -3 51t-2.5 47.5t0.5 38t6.5 32.5t15.5 21.5t28 16t43 4.5q115 3 115 36q0 24 -25.5 36.5t-67.5 12.5q-85 0 -139 -31q-16 40 -38 40q-45 0 -47.5 -98.5t20.5 -291.5z" />
    <glyph glyph-name="s" unicode="s" horiz-adv-x="408" 
d="M258 396q-45 6 -98 -15q-58 -21 -87 -52t-28 -60t28.5 -54t74.5 -35q151 -33 146 -73q-3 -26 -39 -34.5t-76 -1.5t-56 21q-24 21 -51.5 18.5t-36.5 -21.5t4 -45q18 -32 82 -47q48 -12 80 -17t73.5 2t69.5 32q23 20 30.5 56t-2 72.5t-45.5 66t-92 35.5q-81 8 -83 38
q-1 19 28 29q36 12 65 -11q56 -46 91 -20q26 20 17 57q-10 43 -62 55q-15 4 -33 4z" />
    <glyph glyph-name="t" unicode="t" horiz-adv-x="424" 
d="M151 410q0 -19 -19 -23t-41.5 0.5t-41.5 -5.5t-19 -39q1 -11 4 -19t8 -13t8.5 -8t13 -4t14 -1.5t18 0t18.5 0.5l37 -1l1 -264q-3 -34 19.5 -47.5t46.5 0t24 43.5l-23 269l114 -3q64 5 61 32q-2 24 -52 42q-40 14 -89 14q-16 0 -18.5 6.5t-2.5 50.5q1 96 -27 123
q-20 19 -36 -21q-17 -44 -18 -132z" />
    <glyph glyph-name="u" unicode="u" horiz-adv-x="386" 
d="M81 411q-18 1 -31.5 -12.5t-18.5 -35.5q-3 -278 15 -323q32 -64 97.5 -57t120.5 69q8 -32 21.5 -47.5t34.5 -14.5q25 8 33 36.5t-4 65.5q-18 58 -13 176q3 65 -5.5 102t-31.5 36q-66 -9 -56 -141q9 -145 -32 -201q-27 -35 -55 -6q-42 43 -36 178v3q8 166 -39 172z" />
    <glyph glyph-name="v" unicode="v" horiz-adv-x="404" 
d="M340 391q-19 4 -35.5 -8t-21.5 -31l-44 -161q-8 -32 -27 7q-6 14 -21 52q-45 118 -75 145q-13 11 -25 12q-31 0 -51 -20t-2 -52q25 -44 116 -224q60 -120 87 -132q22 -9 36 32l97 342q3 30 -34 38z" />
    <glyph glyph-name="w" unicode="w" horiz-adv-x="538" 
d="M508 392q0 11 -9.5 21t-22 14t-25 -1.5t-16.5 -22.5q-11 -41 -25 -105t-26 -111.5t-27 -84.5l-12 170q-7 63 -34 87.5t-55 0t-38 -86.5q-7 -53 -37 -126l-25 99q-28 113 -78 144q-30 19 -43 -7q-17 -34 16 -103q21 -44 41 -124.5t36 -129.5t38 -49q62 0 97 163
q14 65 17 66q2 1 4 -9q2 -5 3 -14q36 -188 83 -188q34 0 67.5 75.5t52 167.5t18.5 154z" />
    <glyph glyph-name="x" unicode="x" horiz-adv-x="420" 
d="M211 272q-12 -28 -28 -2q-5 7 -15 26q-13 25 -21 37q-33 51 -72 64q-39 12 -44 -30q-1 -5 -1 -12q0 -10 5 -21.5t16.5 -27t22.5 -29t31 -37t33 -39.5q-95 -144 -95 -174q0 -13 10.5 -24t25.5 -14q19 -1 36.5 16.5t28 40.5t22.5 45t21.5 30.5t23.5 -2.5q33 -36 62 -71
q69 -93 99 -63q8 10 13 19t4.5 19t-2.5 18.5t-10 20.5t-15.5 21.5t-22.5 24.5l-27 27t-33 32.5t-37 36.5q6 9 37 41.5t56 64t25 46.5q-5 58 -51 34q-44 -23 -82 -88z" />
    <glyph glyph-name="y" unicode="y" horiz-adv-x="393" 
d="M282 377q-6 -17 -17 -66q-25 -109 -41 -117q-9 -4 -17 10q-118 196 -154 204q-19 4 -22 -38q-1 -8 -1 -18q0 -12 12 -43t34 -76t41 -82.5t44 -86t33 -63.5q-45 -193 -55 -253q-9 -75 31 -75q28 0 44.5 52t83.5 343q39 170 65 280q0 27 -17.5 42.5t-37.5 11.5t-26 -25z
" />
    <glyph glyph-name="z" unicode="z" horiz-adv-x="449" 
d="M120 401l-56 -1q-32 0 -34 -30t25 -50q13 -9 29 -10q119 -4 127 -10q4 -5 -5 -19q-8 -11 -37.5 -51.5t-47.5 -65.5t-41 -58.5t-34.5 -53.5t-11.5 -27q0 -46 130 -37q97 8 173 8q36 0 59 12.5t23 34.5q0 40 -96 34q-14 -1 -42 -4q-78 -7 -86 4q-4 7 4 19q154 226 154 245
q0 18 -17 33q-10 17 -60.5 22t-155.5 5z" />
    <glyph glyph-name="braceleft" unicode="{" horiz-adv-x="456" 
d="M149 453q2 -71 -9.5 -100.5t-55.5 -39.5q-55 -13 -54 -59q0 -38 33 -61q36 -25 71 3q16 15 19 16q22 -6 23 -24.5t-9.5 -54t-10.5 -57.5q0 -49 26.5 -81t65 -41.5t78 -8.5t68 16t32.5 35q0 44 -17.5 58t-43 7t-50.5 -16.5t-42.5 -4.5t-17.5 36q0 30 5 70.5t5 58t-13 42.5
t-46 50q32 34 38.5 71t-1.5 61t-8 44t25.5 27t91.5 3q35 -2 55.5 26.5t7.5 58.5q-10 23 -41.5 30t-70 -4t-74.5 -32t-59.5 -56t-20.5 -73z" />
    <glyph glyph-name="bar" unicode="|" horiz-adv-x="165" 
d="M86 566q-25 0 -36 -16t-10.5 -46.5t4.5 -63t9 -78t4 -78.5q0 -29 -13.5 -129t-13.5 -107q0 -30 12 -49.5t33 -19.5q26 0 40.5 22.5t14.5 58.5l2 221l3 191q0 42 -13 68t-36 26z" />
    <glyph glyph-name="braceright" unicode="}" horiz-adv-x="456" 
d="M41 588q-13 -30 7.5 -58.5t55.5 -26.5q66 4 91.5 -3t25.5 -27t-8 -44t-1.5 -61t38.5 -71q-33 -25 -46 -50t-13 -42.5t5 -58t5 -70.5q0 -31 -17.5 -36t-43 4.5t-50.5 16.5t-42.5 -7t-17.5 -58q4 -20 32.5 -35t68 -16t78 8.5t65 41.5t26.5 81q0 22 -10.5 57.5t-9.5 54
t23 24.5q3 -1 19 -16q38 -31 76 1q32 27 28 64q-4 41 -54 52q-44 10 -55.5 39.5t-9.5 100.5q3 38 -20.5 73t-59.5 56t-74.5 32t-70 4t-41.5 -30z" />
    <glyph glyph-name="asciitilde" unicode="~" horiz-adv-x="489" 
d="M188 319q-48 4 -101 -30t-57 -74q7 -17 16 -26t21 -8t21 2.5t23 12t18.5 14t15.5 13.5q12 11 35.5 10t38.5 -13q27 -22 86 -36q55 -4 105 9q38 12 47 38.5t-11.5 44t-55.5 7.5q-41 -14 -67.5 -10.5t-34.5 12t-34 20t-66 14.5z" />
    <glyph glyph-name="exclamdown" unicode="&#xa1;" horiz-adv-x="170" 
d="M80 463h4q22 0 37.5 9.5t18.5 26.5v10q0 29 -22.5 44.5t-49.5 6t-38 -42.5q4 -23 18.5 -38.5t31.5 -15.5zM94 -10l34 20q8 171 9 379v2q0 32 -25 36h-12q-22 -2 -37 -12.5t-15 -27.5l5 -345q2 -52 28 -52h13z" />
    <glyph glyph-name="cent" unicode="&#xa2;" horiz-adv-x="403" 
d="M373 161q-4 -38 -52 -66.5t-110 -29.5l-14 -62q-41 -23 -55 -3t-10 81q-40 21 -67 63.5t-34 91t18 99t83 83.5q34 20 70 28l6 27q3 37 53 47q28 4 34.5 -22.5t-1.5 -56.5q34 -15 49 -35t1 -39q-20 -29 -72 -29l-41 -186q32 3 68 27q28 20 50.5 16.5t23.5 -34.5zM146 183
q5 29 32 158q-34 -5 -49.5 -35t-9.5 -65.5t27 -57.5z" />
    <glyph glyph-name="sterling" unicode="&#xa3;" horiz-adv-x="490" 
d="M430 113q29 2 30 -29q2 -37 -29 -66q-16 -16 -36 -19q-18 -3 -70.5 -5.5t-121.5 -2t-121 16.5t-52 46q0 27 9.5 41.5t24 20t30 10.5t29 19.5t18.5 40.5q-87 -1 -87 29q0 21 45 39q21 8 47 12q1 22 -1 89q-2 96 50 153.5t156 72.5q74 0 66 -27q-10 -34 -127 -87l-12 -6
q-49 -20 -45 -161l1 -31q98 8 126 -23q18 -22 -14 -41q-34 -20 -103 -19h-12q-8 -62 -30 -78q60 -24 229 5z" />
    <glyph glyph-name="yen" unicode="&#xa5;" horiz-adv-x="452" 
d="M234 193l-2 -16q61 3 94 -6.5t29 -35.5q-20 -44 -127 -42l6 -95q-11 -2 -26.5 -6t-23 -6t-17 -2.5t-13.5 3.5t-7 12t-3 22v71l-76 -1q-16 9 -16 27q0 43 89 55v19q-51 -5 -58 -6q-12 0 -22.5 9.5t-10.5 21.5q0 38 20.5 49t63.5 10q-5 49 -49 129q-55 104 -55 138
q0 21 16 35.5t41 19.5q19 1 32.5 -22.5t18.5 -63.5q10 -34 69 -177q29 36 69 118q33 67 55.5 98t43.5 31q20 -3 33.5 -15.5t13.5 -28.5q0 -13 -61 -112t-100 -149q46 1 71 -9.5t22 -32.5q-22 -45 -120 -42z" />
    <glyph glyph-name="brokenbar" unicode="&#xa6;" horiz-adv-x="153" 
d="M37 222l-7 -102v-21v-21.5v-19.5t1.5 -19t4 -16.5t6.5 -14.5t9.5 -10.5t14 -7.5t18.5 -2q33 0 37 71q1 47 -2 127q0 21 -18 36.5t-36 15t-28 -15.5zM40 481l-7 -103q0 -12 -1 -33.5t-1 -32t2.5 -25.5t8 -22t16.5 -12.5t28 -5.5q35 0 37 71q1 47 -2 128q0 32 -35 46.5
t-46 -11.5z" />
    <glyph glyph-name="guillemotleft" unicode="&#xab;" horiz-adv-x="528" 
d="M498 145l-158 84q120 141 121 167v5q0 46 -60 20q-62 -27 -123 -96q-56 -62 -56 -106v-8q0 -17 51 -47.5t181 -95.5q20 -3 32 13.5t12 42.5v21zM304 133l-156 85q87 102 110 142l9 29q0 47 -60 20q-63 -28 -123 -97q-54 -62 -54 -105v-8q0 -17 51 -47t181 -96
q18 -2 30 15t12 42v20z" />
    <glyph glyph-name="degree" unicode="&#xb0;" horiz-adv-x="264" 
d="M138 76q-19 16 -41 18t-35 -16.5t-2 -47.5q15 -39 51 -28q29 9 37 35q6 21 -10 39z" />
    <glyph glyph-name="plusminus" unicode="&#xb1;" horiz-adv-x="363" 
d="M138 315q-64 -3 -87 -27.5t4.5 -46.5t85.5 -19q0 -52 1 -70q2 -21 16.5 -34.5t35.5 -10.5q45 6 33 122q52 1 75.5 16.5t10.5 47.5q-7 27 -89 24q1 65 -21 93.5t-44 1.5t-21 -97zM170 83h-32q-12 0 -37 1.5t-32.5 0.5t-19.5 -6t-15.5 -17t-3.5 -33q0 -16 17 -25.5
t42 -10.5q29 -1 201 -1q17 0 29 13t12 31q6 15 -3 25t-32 15t-53 6.5t-73 0.5z" />
    <glyph glyph-name="periodcentered" unicode="&#xb7;" horiz-adv-x="187" 
d="M96 399q-45 0 -60.5 -30.5t4.5 -61.5t62 -31l14 3q30 12 39 41.5t-8 54t-51 24.5z" />
    <glyph glyph-name="guillemotright" unicode="&#xbb;" horiz-adv-x="528" 
d="M223 140v-21q0 -25 11.5 -41.5t31.5 -14.5q127 64 179.5 95t52.5 48v8q0 34 -172 211q-70 24 -63 -20q11 -54 117 -181zM30 148v-22q0 -25 11.5 -41.5t30.5 -13.5q128 64 180 94.5t52 47.5v8q0 35 -171 211q-25 9 -46 0.5t-21 -30.5v-4q0 -24 120 -166z" />
    <glyph glyph-name="questiondown" unicode="&#xbf;" horiz-adv-x="419" 
d="M250 469q39 0 55 35q1 80 -47 82q-34 2 -65 -33q-33 -37 -13 -63q17 -21 70 -21zM186 -18q79 -2 139 26q64 32 64 69v3q0 36 -33 52h-26q-72 -63 -139 -63h-1q-63 9 -68 49q-2 19 0.5 30.5t14 19.5t20.5 11t31 9q7 2 11 3q45 14 74 57q29 40 32 153q0 43 -25 56
q-27 13 -49 -29q-14 -26 -20 -71q0 -57 -82 -84q-99 -37 -99 -123q-2 -167 156 -168z" />
    <glyph glyph-name="multiply" unicode="&#xd7;" horiz-adv-x="421" 
d="M242 204q19 -20 45 -45t40 -38.5t30 -31.5t22.5 -29.5t10 -25t-1 -25t-16.5 -24.5q-30 -30 -99 63q-31 38 -78 88q-13 -20 -28 -46t-24 -42.5t-19.5 -31.5t-21.5 -21.5t-23 -5.5q-16 3 -26 14t-10 24q0 29 95 175q-63 79 -88 106q-20 23 -20 47q0 45 33 44q37 -2 74 -51
q5 -7 10 -15q19 -30 44 -61q11 14 30 41q27 38 40 54t32 31t35 8t32 -33q-28 -58 -50.5 -86t-38.5 -42.5t-29 -40.5z" />
    <glyph glyph-name="divide" unicode="&#xf7;" horiz-adv-x="431" 
d="M219 423q-39 0 -55 -36q15 -72 60 -72q34 -1 57 32q24 35 1 58q-18 18 -63 18zM202 282h-41q-7 0 -27 0.5t-28 0t-23.5 -1.5t-22 -4.5t-15 -9.5t-12 -16t-3.5 -23q0 -33 71 -37q54 -2 250 0q19 0 32.5 12t14.5 30q15 30 -35.5 40.5t-160.5 8.5zM211 158q-39 0 -57 -31.5
t-1 -62t64 -29.5l14 2q30 12 39 42t-8 54.5t-51 24.5z" />
    <glyph glyph-name="uni060C" unicode="&#x60c;" horiz-adv-x="251" 
d="M72 157q-39 -65 -12 -122q12 -23 36 -32t53 -3q33 6 47.5 39.5t-14.5 55.5q-6 4 -24.5 4t-26.5 3q1 2 5.5 10t7 12.5t6.5 12.5t5.5 14t3 13t0.5 12.5t-4 10.5q-33 53 -83 -30z" />
    <glyph glyph-name="uni061B" unicode="&#x61b;" horiz-adv-x="260" 
d="M167 356q23 38 23 55.5t-23 40.5q-15 13 -29 8q-73 -24 -86 -106q-6 -37 10 -76.5t43 -55.5q21 -12 45.5 -9t40.5 19q35 36 5 83q-3 4 -29 41zM180 55q4 29 -32.5 47.5t-50.5 -3.5q-18 -26 -21 -48q-3 -21 12 -36t37 -15q24 0 40 15.5t15 39.5z" />
    <glyph glyph-name="uni061F" unicode="&#x61f;" horiz-adv-x="347" 
d="M197 513q9 -1 18 -9q6 -4 15.5 -9t29.5 -5t29 19q8 16 5.5 37.5t-16.5 33.5q-67 63 -142 29q-55 -26 -77 -85q-27 -71 22 -122q19 -21 50 -34q19 -8 39 -25q25 -20 28.5 -33.5t-5.5 -43.5t-5 -53q6 -27 22 -32t37 13q53 46 49 115.5t-62 109.5q-7 5 -25.5 14.5t-32.5 19
t-20 20.5q1 5 4 12.5t13.5 18.5t23.5 9zM275 51q4 20 -18 39t-42 19q-17 0 -30 -14.5t-13 -34.5q-1 -24 14.5 -42t35.5 -18t36 15.5t17 35.5z" />
    <glyph glyph-name="uni0621" unicode="&#x621;" horiz-adv-x="493" 
d="M433 62q-2 -20 -85.5 -44.5t-171.5 -36.5t-101 -3q-17 11 -14.5 33.5t19.5 32.5q30 18 54.5 29t31 10.5t9.5 4.5t-2 9t-12 27.5t-12 56.5q-10 51 23.5 93t86.5 47q24 3 41.5 -10.5t16 -32.5t-25.5 -29q-60 -24 -61.5 -67.5t53.5 -69.5q12 -7 40 -9t51 -2t41 -9t18 -30z
" />
    <glyph glyph-name="uni0622" unicode="&#x622;" horiz-adv-x="199" 
d="M144 553q-1 21 -9 30t-26 13q-13 2 -22.5 -7.5t-15 -31.5t-8.5 -48t-4 -66.5t-1 -75.5t-0.5 -87t-1.5 -91q0 -10 -1 -29q-2 -33 -1.5 -62.5t5 -51t17.5 -34t36 -12.5q10 0 16.5 9t9 27.5t3.5 33.5t1.5 41.5t1.5 36.5q8 278 0 405zM107 657q31 -15 63 -6q9 3 17.5 7
t17.5 10t14.5 10t16 12.5t13.5 11.5q13 11 20 34.5t-1 41.5t-34 12q-13 -3 -33.5 -30.5t-30.5 -34.5q-19 -10 -37.5 -3t-32 20.5t-33.5 19.5t-40 -7q-38 -23 -67.5 -60t-5.5 -55q14 -11 24 -1.5t16.5 26.5t22.5 25.5t41 -3.5q1 -1 21 -13.5t28 -16.5z" />
    <glyph glyph-name="uni0623" unicode="&#x623;" horiz-adv-x="199" 
d="M144 553q-1 21 -9 30t-26 13q-13 2 -22.5 -7.5t-15 -31.5t-8.5 -48t-4 -66.5t-1 -75.5t-0.5 -87t-1.5 -91q0 -10 -1 -29q-2 -33 -1.5 -62.5t5 -51t17.5 -34t36 -12.5q10 0 16.5 9t9 27.5t3.5 33.5t1.5 41.5t1.5 36.5q8 278 0 405zM209 679q-3 -19 -97.5 -30.5t-110.5 0.5
q-11 10 -8 25.5t16 20.5q15 7 32 11q10 2 11.5 5.5t-0.5 25.5q-1 14 -2 23q-3 47 35 69t66 -4q10 -9 6.5 -21.5t-17.5 -17.5q-21 -6 -29 -17.5t-2.5 -24t21.5 -24.5q6 -3 28.5 -6t38 -10.5t12.5 -24.5z" />
    <glyph glyph-name="uni0624" unicode="&#x624;" horiz-adv-x="426" 
d="M258 -164q40 26 86 110q31 55 32 119t-30 121q-34 57 -88 74q-86 26 -143 -19t-36 -127q15 -58 69 -78q18 -7 37 -9t29 -1.5t33.5 4.5t30.5 5q-7 -69 -52 -109t-119 -40q-40 0 -52 -15.5t3.5 -33t45.5 -22.5q94 -18 154 21zM268 138q-51 -31 -86 -8q-23 16 -14 36
q10 18 43 19q14 0 25.5 -7.5t17.5 -16t14 -23.5zM311 351q-3 -19 -97.5 -30.5t-110.5 0.5q-11 10 -8 25.5t16 20.5q15 7 32 11q10 2 11.5 5.5t-0.5 25.5q-1 4 -1 6.5t-0.5 7.5t-0.5 9q-3 47 35 69t66 -4q10 -9 6.5 -21.5t-17.5 -17.5q-21 -6 -29 -17.5t-2.5 -24t21.5 -24.5
q6 -3 28.5 -6t38 -10.5t12.5 -24.5z" />
    <glyph glyph-name="uni0625" unicode="&#x625;" horiz-adv-x="199" 
d="M144 553q-1 21 -9 30t-26 13q-13 2 -22.5 -7.5t-15 -31.5t-8.5 -48t-4 -66.5t-1 -75.5t-0.5 -87t-1.5 -91q0 -10 -1 -29q-2 -33 -1.5 -62.5t5 -51t17.5 -34t36 -12.5q10 0 16.5 9t9 27.5t3.5 33.5t1.5 41.5t1.5 36.5q8 278 0 405zM209 -209q-3 -19 -97.5 -30.5
t-110.5 0.5q-11 10 -8 25.5t16 20.5q15 7 32 11q10 2 11.5 5.5t-0.5 25.5q-1 14 -2 23q-3 47 35 69t66 -4q10 -9 6.5 -21.5t-17.5 -17.5q-21 -6 -29 -17.5t-2.5 -24t21.5 -24.5q6 -3 28.5 -6t38 -10.5t12.5 -24.5z" />
    <glyph glyph-name="uni0626" unicode="&#x626;" horiz-adv-x="627" 
d="M514 316q-77 -4 -141 -50q-58 -38 -51 -105q5 -53 44 -105q3 -4 15 -18.5t18 -23t11.5 -21.5t5.5 -25q-1 -19 -15 -33t-34 -19q-43 -11 -92.5 -2.5t-85.5 34.5q-26 19 -40 69t-27 67q-21 25 -45.5 8.5t-26.5 -49.5q-3 -93 87 -153q60 -40 128.5 -54t139.5 3
q45 12 77 47.5t26 79.5q-2 22 -11 43t-18 33.5t-25.5 35t-24.5 33.5q-20 35 -3.5 63t53.5 40q75 23 94 60q16 29 -21 39q-15 4 -38 3zM256 182q-3 -19 -97.5 -30.5t-110.5 0.5q-11 10 -8 25.5t16 20.5q15 7 32 11q10 2 11.5 5.5t-0.5 25.5q-1 14 -2 23q-3 47 35 69t66 -4
q10 -9 6.5 -21.5t-17.5 -17.5q-21 -6 -29 -17.5t-2.5 -24t21.5 -24.5q6 -3 28.5 -6t38 -10.5t12.5 -24.5z" />
    <glyph glyph-name="uni0627" unicode="&#x627;" horiz-adv-x="199" 
d="M144 553q-1 21 -9 30t-26 13q-13 2 -22.5 -7.5t-15 -31.5t-8.5 -48t-4 -66.5t-1 -75.5t-0.5 -87t-1.5 -91q0 -10 -1 -29q-2 -33 -1.5 -62.5t5 -51t17.5 -34t36 -12.5q10 0 16.5 9t9 27.5t3.5 33.5t1.5 41.5t1.5 36.5q8 278 0 405z" />
    <glyph glyph-name="uni0628" unicode="&#x628;" horiz-adv-x="837" 
d="M672 29q92 35 104 110q11 63 11 91t-13 98q-4 16 -22 22t-35 1q-15 -4 -25 -16.5t-11 -27.5q-2 -40 -1.5 -83t-2.5 -52q-7 -45 -65.5 -68.5t-136 -20t-153.5 20t-126.5 50t-46.5 71.5q1 11 4.5 28t5.5 28.5t1 26.5t-8 27q-17 32 -36 28.5t-34 -23.5t-21 -44
q-10 -37 -10.5 -68.5t7 -55.5t25.5 -44.5t38 -35t51.5 -28t60 -23t68.5 -20.5q47 -13 107.5 -19t133 0t130.5 27zM465 -68q-19 16 -41 18t-35 -16.5t-2 -47.5q15 -39 51 -28q29 9 37 35q6 21 -10 39z" />
    <glyph glyph-name="uni0629" unicode="&#x629;" horiz-adv-x="390" 
d="M407 373q2 15 -8.5 28.5t-25.5 15.5q-41 6 -119 -48q-2 -1 -8 -5.5t-8.5 -6t-8.5 -5t-9 -4.5l-9 -3t-10.5 -2.5t-10.5 0t-12 1.5q-14 3 -25 -6t-9 -22q2 -12 -3 -23.5t-9.5 -16.5t-15.5 -16q-42 -41 -59.5 -99.5t5 -106t86.5 -52.5q61 -5 111.5 22t70.5 74t-3 110
q-4 11 -13 36t-14 37q-3 16 13.5 28t37.5 18.5t38.5 18t17.5 27.5zM147 105q-24 16 4 56t67 67q47 -46 14 -103q-11 -19 -36 -26t-49 6zM314 522q-14 20 -42.5 22t-47.5 -16t-8 -47q15 -42 56 -36q34 5 47 33q10 22 -5 44zM200 522q-22 16 -53.5 14t-45.5 -19t0 -46
q16 -25 44 -27t47 11q28 14 29 33q2 17 -21 34z" />
    <glyph glyph-name="uni062A" unicode="&#x62a;" horiz-adv-x="837" 
d="M672 29q92 35 104 110q11 63 11 91t-13 98q-4 16 -22 22t-35 1q-15 -4 -25 -16.5t-11 -27.5q-2 -40 -1.5 -83t-2.5 -52q-7 -45 -65.5 -68.5t-136 -20t-153.5 20t-126.5 50t-46.5 71.5q1 11 4.5 28t5.5 28.5t1 26.5t-8 27q-17 32 -36 28.5t-34 -23.5t-21 -44
q-10 -37 -10.5 -68.5t7 -55.5t25.5 -44.5t38 -35t51.5 -28t60 -23t68.5 -20.5q47 -13 107.5 -19t133 0t130.5 27zM535 482q-14 20 -42.5 22t-47.5 -16t-8 -47q15 -42 56 -36q34 5 47 33q10 22 -5 44zM421 482q-22 16 -53.5 14t-45.5 -19t0 -46q16 -25 44 -27t47 11
q28 14 29 33q2 17 -21 34z" />
    <glyph glyph-name="uni062B" unicode="&#x62b;" horiz-adv-x="837" 
d="M672 29q92 35 104 110q11 63 11 91t-13 98q-4 16 -22 22t-35 1q-15 -4 -25 -16.5t-11 -27.5q-2 -40 -1.5 -83t-2.5 -52q-7 -45 -65.5 -68.5t-136 -20t-153.5 20t-126.5 50t-46.5 71.5q1 11 4.5 28t5.5 28.5t1 26.5t-8 27q-17 32 -36 28.5t-34 -23.5t-21 -44
q-10 -37 -10.5 -68.5t7 -55.5t25.5 -44.5t38 -35t51.5 -28t60 -23t68.5 -20.5q47 -13 107.5 -19t133 0t130.5 27zM487 431q-17 21 -25 29.5t-16 8.5t-12 -4.5t-16.5 -18.5t-25.5 -25q-79 -69 -91 -32q-9 29 28 90q44 72 96 86q48 11 85 -38q57 -78 46 -117q-7 -26 -36 -9
q-16 9 -33 30z" />
    <glyph glyph-name="uni062C" unicode="&#x62c;" horiz-adv-x="673" 
d="M372 87q-89 0 -126 -5.5t-88 -24.5q-49 -19 -78 -67q-28 -47 -30 -130q-1 -64 33.5 -114t90 -76.5t116.5 -39t119 -9.5q19 1 34 19t14 39q0 7 -3.5 12.5t-10 9t-12 6t-16 3.5t-14.5 1.5t-15 0.5l-11 1q-43 2 -82.5 11t-76 28t-56.5 53.5t-15 81.5q5 62 47 81
q19 9 39.5 14.5t46 8.5t40.5 4.5t47 2.5t42 2q8 0 34 0.5t43.5 2.5t32.5 7q86 33 101 113q20 113 -52 188q-51 52 -134 76t-153 6q-30 -8 -61 -27t-21 -42q10 -22 51 -23t61 5q87 8 157 -32q37 -21 53.5 -62t4.5 -75.5t-48 -39.5q-15 -2 -104 -10zM410 -117q-19 16 -41 18
t-35 -16.5t-2 -47.5q15 -39 51 -28q29 9 37 35q6 21 -10 39z" />
    <glyph glyph-name="uni062D" unicode="&#x62d;" horiz-adv-x="673" 
d="M372 87q-89 0 -126 -5.5t-88 -24.5q-49 -19 -78 -67q-28 -47 -30 -130q-1 -64 33.5 -114t90 -76.5t116.5 -39t119 -9.5q19 1 34 19t14 39q0 7 -3.5 12.5t-10 9t-12 6t-16 3.5t-14.5 1.5t-15 0.5l-11 1q-43 2 -82.5 11t-76 28t-56.5 53.5t-15 81.5q5 62 47 81
q19 9 39.5 14.5t46 8.5t40.5 4.5t47 2.5t42 2q8 0 34 0.5t43.5 2.5t32.5 7q86 33 101 113q20 113 -52 188q-51 52 -134 76t-153 6q-30 -8 -61 -27t-21 -42q10 -22 51 -23t61 5q87 8 157 -32q37 -21 53.5 -62t4.5 -75.5t-48 -39.5q-15 -2 -104 -10z" />
    <glyph glyph-name="uni062E" unicode="&#x62e;" horiz-adv-x="673" 
d="M372 87q-89 0 -126 -5.5t-88 -24.5q-49 -19 -78 -67q-28 -47 -30 -130q-1 -64 33.5 -114t90 -76.5t116.5 -39t119 -9.5q19 1 34 19t14 39q0 7 -3.5 12.5t-10 9t-12 6t-16 3.5t-14.5 1.5t-15 0.5l-11 1q-43 2 -82.5 11t-76 28t-56.5 53.5t-15 81.5q5 62 47 81
q19 9 39.5 14.5t46 8.5t40.5 4.5t47 2.5t42 2q8 0 34 0.5t43.5 2.5t32.5 7q86 33 101 113q20 113 -52 188q-51 52 -134 76t-153 6q-30 -8 -61 -27t-21 -42q10 -22 51 -23t61 5q87 8 157 -32q37 -21 53.5 -62t4.5 -75.5t-48 -39.5q-15 -2 -104 -10zM433 527q-16 23 -43 19.5
t-38.5 -25t3.5 -51.5q19 -30 46 -25.5t36.5 29.5t-4.5 53z" />
    <glyph glyph-name="uni062F" unicode="&#x62f;" horiz-adv-x="451" 
d="M307 172q0 -14 -4.5 -25.5t-14.5 -19.5t-20 -14t-26.5 -9.5t-28.5 -6t-31 -3t-28.5 -0.5h-26.5h-20q-34 0 -49.5 -22.5t-4 -45.5t44.5 -24q129 -5 173 2q124 19 131 128q4 51 -17 124q-22 83 -91 112q-78 35 -153 6q-53 -20 -59 -56q-3 -17 7 -33q8 -14 19 -16t31 5
q69 30 118.5 4t49.5 -106z" />
    <glyph glyph-name="uni0630" unicode="&#x630;" horiz-adv-x="451" 
d="M307 172q0 -14 -4.5 -25.5t-14.5 -19.5t-20 -14t-26.5 -9.5t-28.5 -6t-31 -3t-28.5 -0.5h-26.5h-20q-34 0 -49.5 -22.5t-4 -45.5t44.5 -24q129 -5 173 2q124 19 131 128q4 51 -17 124q-22 83 -91 112q-78 35 -153 6q-53 -20 -59 -56q-3 -17 7 -33q8 -14 19 -16t31 5
q69 30 118.5 4t49.5 -106zM251 518q-16 23 -43 19.5t-38.5 -25t3.5 -51.5q19 -30 46 -25.5t36.5 29.5t-4.5 53z" />
    <glyph glyph-name="uni0631" unicode="&#x631;" horiz-adv-x="352" 
d="M246 292q-15 2 -25 -3t-15 -16t-7.5 -24.5t-2 -33t1.5 -35t2.5 -38t2.5 -35.5q2 -43 -3.5 -82.5t-20 -79t-45.5 -66t-75 -32.5q-34 -5 -38 -30q-5 -27 26 -42q29 -14 72 -6q84 15 148 141q20 39 30.5 128.5t-2 169.5t-49.5 84z" />
    <glyph glyph-name="uni0632" unicode="&#x632;" horiz-adv-x="352" 
d="M246 292q-15 2 -25 -3t-15 -16t-7.5 -24.5t-2 -33t1.5 -35t2.5 -38t2.5 -35.5q2 -43 -3.5 -82.5t-20 -79t-45.5 -66t-75 -32.5q-34 -5 -38 -30q-5 -27 26 -42q29 -14 72 -6q84 15 148 141q20 39 30.5 128.5t-2 169.5t-49.5 84zM271 423q-16 23 -43 19.5t-38.5 -25
t3.5 -51.5q19 -30 46 -25.5t36.5 29.5t-4.5 53z" />
    <glyph glyph-name="uni0633" unicode="&#x633;" horiz-adv-x="1005" 
d="M30 147q4 -127 78 -194.5t195 -61.5q126 7 165 91q16 34 52 28q77 -14 165 25q16 8 45.5 -11t37.5 -21q45 -10 91 4q69 21 92 80q30 81 22 156q-2 18 -13 33q-10 13 -23.5 14t-26.5 -11q-21 -21 -24 -50q-7 -102 -42 -133q-9 -8 -19 -14t-21.5 -9t-20.5 2.5t-13 20.5
q-8 36 -14 110q-5 46 -34 50q-12 1 -27 -10t-19 -25q-2 -5 -7 -50.5t-23 -63.5q-17 -18 -77 -25q-23 -3 -39 4t-25 23.5t-14 33t-10.5 41.5t-11.5 39q-10 26 -38 24q-11 -1 -19.5 -11t-9.5 -25q-1 -9 2 -78q2 -84 -15 -117q-14 -28 -47.5 -40t-66.5 -7q-113 18 -141 62
t-9 156q1 6 6.5 25t5.5 25t-3 26q-6 17 -23.5 20t-29.5 -7q-55 -40 -51 -129z" />
    <glyph glyph-name="uni0634" unicode="&#x634;" horiz-adv-x="1005" 
d="M30 147q4 -127 78 -194.5t195 -61.5q126 7 165 91q16 34 52 28q77 -14 165 25q16 8 45.5 -11t37.5 -21q45 -10 91 4q69 21 92 80q30 81 22 156q-2 18 -13 33q-10 13 -23.5 14t-26.5 -11q-21 -21 -24 -50q-7 -102 -42 -133q-9 -8 -19 -14t-21.5 -9t-20.5 2.5t-13 20.5
q-8 36 -14 110q-5 46 -34 50q-12 1 -27 -10t-19 -25q-2 -5 -7 -50.5t-23 -63.5q-17 -18 -77 -25q-23 -3 -39 4t-25 23.5t-14 33t-10.5 41.5t-11.5 39q-10 26 -38 24q-11 -1 -19.5 -11t-9.5 -25q-1 -9 2 -78q2 -84 -15 -117q-14 -28 -47.5 -40t-66.5 -7q-113 18 -141 62
t-9 156q1 6 6.5 25t5.5 25t-3 26q-6 17 -23.5 20t-29.5 -7q-55 -40 -51 -129zM796 376q-26 32 -52 41.5t-49.5 0.5t-52.5 -34q-75 -65 -80 -39q-4 23 40 78q63 78 127 89q54 9 90 -40q59 -70 50 -112q-6 -26 -33 -17q-19 8 -40 33z" />
    <glyph glyph-name="uni0635" unicode="&#x635;" horiz-adv-x="1135" 
d="M130 201q-14 14 -35 3.5t-32 -42.5q-25 -80 -1.5 -159.5t82.5 -136.5q65 -62 159.5 -66t164.5 58q37 33 56 82q2 5 5 26t10 31.5t23 10.5q20 0 72 -4t109 -3.5t123 9.5q120 16 185 68q44 35 28 112q-17 83 -86 138q-101 80 -233 26l-10 -4q-55 -24 -95.5 -65t-59 -77.5
t-35.5 -86.5q-18 -54 -37 -2q-3 8 -6 18q-15 48 -21 57q-8 13 -21 20t-24 4q-13 -4 -19 -15t-5.5 -27.5t2.5 -29.5t7 -31.5t6 -22.5q31 -151 -68 -194q-41 -17 -87.5 -9t-80.5 36q-45 36 -61.5 94t-1.5 116q12 48 -13 66zM795 277q101 28 166 -18q46 -34 36 -78
q-11 -53 -95 -74l-16 -4q-112 -21 -253 -21q-11 0 -1 39.5t52.5 88.5t110.5 67z" />
    <glyph glyph-name="uni0636" unicode="&#x636;" horiz-adv-x="1135" 
d="M130 201q-14 14 -35 3.5t-32 -42.5q-25 -80 -1.5 -159.5t82.5 -136.5q65 -62 159.5 -66t164.5 58q37 33 56 82q2 5 5 26t10 31.5t23 10.5q20 0 72 -4t109 -3.5t123 9.5q120 16 185 68q44 35 28 112q-17 83 -86 138q-101 80 -233 26l-10 -4q-55 -24 -95.5 -65t-59 -77.5
t-35.5 -86.5q-18 -54 -37 -2q-3 8 -6 18q-15 48 -21 57q-8 13 -21 20t-24 4q-13 -4 -19 -15t-5.5 -27.5t2.5 -29.5t7 -31.5t6 -22.5q31 -151 -68 -194q-41 -17 -87.5 -9t-80.5 36q-45 36 -61.5 94t-1.5 116q12 48 -13 66zM795 277q101 28 166 -18q46 -34 36 -78
q-11 -53 -95 -74l-16 -4q-112 -21 -253 -21q-11 0 -1 39.5t52.5 88.5t110.5 67zM733 463q-16 23 -43 19.5t-38.5 -25t3.5 -51.5q19 -30 46 -25.5t36.5 29.5t-4.5 53z" />
    <glyph glyph-name="uni0637" unicode="&#x637;" horiz-adv-x="795" 
d="M166 113q-8 -4 -16.5 -4.5t-20 2t-16.5 2.5q-29 4 -43 0q-32 -11 -14 -46q13 -27 45 -32q387 -64 564 -8q66 22 77 74q14 70 -5.5 123t-66 78.5t-108.5 28.5t-139.5 -26t-153.5 -86q7 152 -21 332q-6 39 -38 47q-31 8 -47 -20q-13 -23 -4 -60l17 -182q15 -208 -10 -223z
M283 101q21 41 69 77.5t102 55t107 1t78 -78.5q5 -12 5.5 -22.5t-4 -17.5t-10 -12.5t-17 -9t-19.5 -6t-22 -3.5t-21.5 -1.5t-21.5 -1t-17 -0.5q-64 -3 -133 4.5t-96 14.5z" />
    <glyph glyph-name="uni0638" unicode="&#x638;" horiz-adv-x="795" 
d="M166 113q-8 -4 -16.5 -4.5t-20 2t-16.5 2.5q-29 4 -43 0q-32 -11 -14 -46q13 -27 45 -32q387 -64 564 -8q66 22 77 74q14 70 -5.5 123t-66 78.5t-108.5 28.5t-139.5 -26t-153.5 -86q7 152 -21 332q-6 39 -38 47q-31 8 -47 -20q-13 -23 -4 -60l17 -182q15 -208 -10 -223z
M283 101q21 41 69 77.5t102 55t107 1t78 -78.5q5 -12 5.5 -22.5t-4 -17.5t-10 -12.5t-17 -9t-19.5 -6t-22 -3.5t-21.5 -1.5t-21.5 -1t-17 -0.5q-64 -3 -133 4.5t-96 14.5zM463 480q-16 23 -43 19.5t-38.5 -25t3.5 -51.5q19 -30 46 -25.5t36.5 29.5t-4.5 53z" />
    <glyph glyph-name="uni0639" unicode="&#x639;" horiz-adv-x="497" 
d="M335 -359q63 -14 107.5 -4t48.5 53q1 10 -6.5 15t-18.5 7q-30 5 -92 5t-107.5 10t-83.5 42q-49 44 -31 108q27 100 144 123q4 1 50.5 6t72.5 14.5t28 28.5q2 17 -9.5 27.5t-32 15t-40.5 6.5t-44 3t-35 3q-46 8 -80.5 41t-7.5 73q17 28 50 37q9 2 28.5 2.5t28.5 3.5
q19 7 26 20.5t-1.5 27t-29.5 19.5q-48 14 -103 -9t-84.5 -71.5t-7.5 -99.5q7 -15 35 -45.5t31 -35.5q4 -10 -14 -30t-42 -42.5t-30 -32.5q-45 -76 -32 -148q22 -133 282 -173z" />
    <glyph glyph-name="uni063A" unicode="&#x63a;" horiz-adv-x="497" 
d="M335 -359q63 -14 107.5 -4t48.5 53q1 10 -6.5 15t-18.5 7q-30 5 -92 5t-107.5 10t-83.5 42q-49 44 -31 108q27 100 144 123q4 1 50.5 6t72.5 14.5t28 28.5q2 17 -9.5 27.5t-32 15t-40.5 6.5t-44 3t-35 3q-46 8 -80.5 41t-7.5 73q17 28 50 37q9 2 28.5 2.5t28.5 3.5
q19 7 26 20.5t-1.5 27t-29.5 19.5q-48 14 -103 -9t-84.5 -71.5t-7.5 -99.5q7 -15 35 -45.5t31 -35.5q4 -10 -14 -30t-42 -42.5t-30 -32.5q-45 -76 -32 -148q22 -133 282 -173zM213 460q-16 23 -43 19.5t-38.5 -25t3.5 -51.5q19 -30 46 -25.5t36.5 29.5t-4.5 53z" />
    <glyph glyph-name="uni0640" unicode="&#x640;" horiz-adv-x="102" 
d="M-50 41q0 18 14.5 29.5t36.5 11.5h101v-82h-101q-22 0 -36.5 11.5t-14.5 29.5z" />
    <glyph glyph-name="uni0641" unicode="&#x641;" horiz-adv-x="718" 
d="M324 82q-86 0 -130.5 33.5t-33.5 110.5q9 61 -25 70q-29 9 -57 -25q-40 -49 -23 -125q11 -51 48.5 -92t84.5 -53q69 -17 139.5 -19t129.5 10.5t108 38t74 62t28.5 82.5t-28.5 101t-91 63q-41 4 -84 -28t-60.5 -79.5t2.5 -100.5q21 -36 12 -42.5t-94 -6.5zM539 102
q-48 30 -47 87q1 41 22 51q14 6 28 -11q22 -26 21.5 -62t-24.5 -65zM486 471q-16 23 -43 19.5t-38.5 -25t3.5 -51.5q19 -30 46 -25.5t36.5 29.5t-4.5 53z" />
    <glyph glyph-name="uni0642" unicode="&#x642;" horiz-adv-x="647" 
d="M47 111q-15 -51 18.5 -131t85.5 -113q61 -38 149 -38q77 0 154 34q36 14 71 46q53 47 67.5 124.5t-10.5 142.5q-23 65 -82 103t-121 8q-55 -27 -85 -82.5t-5 -108.5q10 -21 26.5 -34.5t41.5 -18t42.5 -5.5t49.5 0.5t41 1.5q1 -1 0.5 -4t-2.5 -10t-4 -12.5t-4 -11.5l-2 -5
q-45 -89 -152 -89q-59 0 -102 16q-36 14 -50.5 48.5t-21.5 87.5t-19 80q-20 38 -46.5 27.5t-39.5 -56.5zM481 137q-4 0 -21.5 -4t-31.5 -5.5t-30.5 -2t-25.5 6.5t-9 20q0 26 23 38.5t46 0.5q36 -18 49 -54zM521 423q-14 20 -42.5 22t-47.5 -16t-8 -47q15 -42 56 -36
q34 5 47 33q10 22 -5 44zM407 423q-22 16 -53.5 14t-45.5 -19t0 -46q16 -25 44 -27t47 11q28 14 29 33q2 17 -21 34z" />
    <glyph glyph-name="uni0643" unicode="&#x643;" horiz-adv-x="759" 
d="M550 92q-96 -9 -231 -14q-41 -2 -82 15t-67 48q-17 22 -20 53.5t1.5 57t-3.5 57.5q-8 31 -38.5 32t-43.5 -28q-33 -75 -0.5 -153.5t103.5 -119.5q68 -40 166 -40q107 0 227 16q124 15 143 129q4 30 3 47q-1 60 -19 192t-27 163q-5 19 -22 32.5t-33 11.5q-33 -5 -35 -53
q0 -8 5 -46q2 -18 12.5 -85.5t16.5 -119t6 -86.5q2 -102 -62 -109zM401 481q-18 -1 -39 -12.5t-32 -22.5q-21 -24 -23.5 -56.5t21.5 -74.5q4 -8 4 -12.5t-7 -8t-14 -5t-17 -4.5t-16 -6q-32 -15 -4 -63q10 -18 102 6.5t134 56.5q24 17 18 32q-10 25 -32 29t-43.5 -4t-42.5 -7
t-29 21q-9 21 12 41q3 3 11.5 10.5t13.5 12.5t10 13t5 15q3 41 -32 39z" />
    <glyph glyph-name="uni0644" unicode="&#x644;" horiz-adv-x="581" 
d="M507 555q-1 15 -14.5 27t-29.5 13q-40 3 -47 -89.5t5.5 -237.5t12.5 -162q-2 -40 -17 -77q-18 -44 -56.5 -67.5t-86.5 -20.5q-34 2 -66 19t-50 45q-12 20 -15.5 46.5t-2 49t-0.5 49.5q-4 35 -33 38q-14 1 -27 -7.5t-18 -21.5q-11 -26 -11.5 -65.5t8.5 -66.5
q19 -64 73 -104t119 -45.5t135 17.5q50 19 85 58.5t47 91.5q5 20 7.5 49t2 72t-1 74.5t-4 88.5t-5 79t-6 82.5t-4.5 64.5z" />
    <glyph glyph-name="uni0645" unicode="&#x645;" horiz-adv-x="594" 
d="M192 119q-6 -1 -17.5 -2t-17.5 -1q-45 -5 -73.5 -35t-32.5 -75q-9 -91 79 -214q1 -2 9 -13.5t12 -16t11.5 -12.5t15.5 -11.5t17 -3.5q18 1 27.5 15.5t6.5 32.5q-3 22 -26 55.5t-43 59.5t-31 60.5t8 59.5q17 26 52.5 31t60.5 -15q23 -20 49.5 -28.5t51.5 -7.5t57 2
q49 3 89 27q36 22 44.5 72t-9.5 98.5t-52 69.5q-59 38 -142.5 27.5t-114.5 -62.5q-9 -15 -14 -33.5t-9.5 -44t-7.5 -35.5zM453 156q8 -34 -9 -55.5t-49 -23.5q-22 -5 -48.5 -2.5t-42.5 20.5q-28 29 -13 66q15 35 50.5 48t68.5 -1.5t43 -51.5z" />
    <glyph glyph-name="uni0646" unicode="&#x646;" horiz-adv-x="618" 
d="M131 239q-6 1 -11.5 -1.5t-10.5 -8.5t-9.5 -12.5t-8.5 -16t-6.5 -15.5t-6 -15t-3.5 -10q-47 -117 -12 -207q17 -45 63 -85q38 -34 102 -54q100 -32 208 10q50 19 80 55q41 50 49 89q14 66 -26 142q-22 46 -33 63q-26 36 -47 29q-14 -4 -20.5 -21t-2.5 -32q4 -17 20 -50
t21 -51q14 -60 -13 -104q-52 -79 -204 -68q-77 5 -112 69q-7 12 -11 24.5t-5.5 29t-2.5 25t2 29.5t3.5 25t5 29t4.5 26q0 2 2 10.5t2.5 13.5t2 14.5t1.5 15.5t0.5 14t-1 13.5t-4 11t-6.5 9t-10 4.5zM325 155q-16 23 -43 19.5t-38.5 -25t3.5 -51.5q19 -30 46 -25.5t36.5 29.5
t-4.5 53z" />
    <glyph glyph-name="uni0647" unicode="&#x647;" horiz-adv-x="390" 
d="M407 373q2 15 -8.5 28.5t-25.5 15.5q-41 6 -119 -48q-2 -1 -8 -5.5t-8.5 -6t-8.5 -5t-9 -4.5l-9 -3t-10.5 -2.5t-10.5 0t-12 1.5q-14 3 -25 -6t-9 -22q2 -12 -3 -23.5t-9.5 -16.5t-15.5 -16q-42 -41 -59.5 -99.5t5 -106t86.5 -52.5q61 -5 111.5 22t70.5 74t-3 110
q-4 11 -13 36t-14 37q-3 16 13.5 28t37.5 18.5t38.5 18t17.5 27.5zM147 105q-24 16 4 56t67 67q47 -46 14 -103q-11 -19 -36 -26t-49 6z" />
    <glyph glyph-name="uni0648" unicode="&#x648;" horiz-adv-x="426" 
d="M258 -164q40 26 86 110q31 55 32 119t-30 121q-34 57 -88 74q-86 26 -143 -19t-36 -127q15 -58 69 -78q18 -7 37 -9t29 -1.5t33.5 4.5t30.5 5q-7 -69 -52 -109t-119 -40q-40 0 -52 -15.5t3.5 -33t45.5 -22.5q94 -18 154 21zM268 138q-51 -31 -86 -8q-23 16 -14 36
q10 18 43 19q14 0 25.5 -7.5t17.5 -16t14 -23.5z" />
    <glyph glyph-name="uni0649" unicode="&#x649;" horiz-adv-x="627" 
d="M514 316q-77 -4 -141 -50q-58 -38 -51 -105q5 -53 44 -105q3 -4 15 -18.5t18 -23t11.5 -21.5t5.5 -25q-1 -19 -15 -33t-34 -19q-43 -11 -92.5 -2.5t-85.5 34.5q-26 19 -40 69t-27 67q-21 25 -45.5 8.5t-26.5 -49.5q-3 -93 87 -153q60 -40 128.5 -54t139.5 3
q45 12 77 47.5t26 79.5q-2 22 -11 43t-18 33.5t-25.5 35t-24.5 33.5q-20 35 -3.5 63t53.5 40q75 23 94 60q16 29 -21 39q-15 4 -38 3z" />
    <glyph glyph-name="uni064A" unicode="&#x64a;" horiz-adv-x="627" 
d="M514 316q-77 -4 -141 -50q-58 -38 -51 -105q5 -53 44 -105q3 -4 15 -18.5t18 -23t11.5 -21.5t5.5 -25q-1 -19 -15 -33t-34 -19q-43 -11 -92.5 -2.5t-85.5 34.5q-26 19 -40 69t-27 67q-21 25 -45.5 8.5t-26.5 -49.5q-3 -93 87 -153q60 -40 128.5 -54t139.5 3
q45 12 77 47.5t26 79.5q-2 22 -11 43t-18 33.5t-25.5 35t-24.5 33.5q-20 35 -3.5 63t53.5 40q75 23 94 60q16 29 -21 39q-15 4 -38 3zM405 -245q-16 22 -43.5 23.5t-45.5 -12.5q-31 -20 -29 -32q3 -23 43 -38q35 -13 66.5 6.5t8.5 52.5zM291 -232q-15 23 -42.5 21.5t-48 -25
t-8.5 -47.5q17 -34 48.5 -35t49 26t1.5 60z" />
    <glyph glyph-name="uni064B" unicode="&#x64b;" 
d="M243 159q-20 5 -99.5 -24t-80.5 -50q-1 -11 10.5 -15.5t21.5 -0.5q46 21 74 30q12 4 36 9t33 7q22 6 22.5 22.5t-17.5 21.5zM238 93q-34 -6 -98.5 -32.5t-65.5 -42.5q-1 -11 10.5 -15.5t21.5 -0.5q46 21 74 30q12 4 36 9t33 7q32 9 25 27t-36 18z" />
    <glyph glyph-name="uni064C" unicode="&#x64c;" 
d="M220 59q-16 22 -24 30q-38 40 -95 33q-24 -4 -41 -19.5t-6 -37.5q5 -9 12 -10t13.5 2t15 8t12.5 6q26 7 38.5 -7.5t21.5 -35.5t24 -26q30 -10 85 37q56 47 60 88q3 26 -23 36q-25 14 -57 4.5t-31 -43.5q0 -10 8.5 -19.5t16.5 -11t13 4.5q-10 -19 -43 -39z" />
    <glyph glyph-name="uni064D" unicode="&#x64d;" 
d="M243 159q-20 5 -99.5 -24t-80.5 -50q-1 -11 10.5 -15.5t21.5 -0.5q46 21 74 30q12 4 36 9t33 7q22 6 22.5 22.5t-17.5 21.5zM238 93q-34 -6 -98.5 -32.5t-65.5 -42.5q-1 -11 10.5 -15.5t21.5 -0.5q46 21 74 30q12 4 36 9t33 7q32 9 25 27t-36 18z" />
    <glyph glyph-name="uni064E" unicode="&#x64e;" 
d="M58 2q11 -4 23 0q17 4 35 10.5t42.5 16.5t33.5 14q19 8 11 31q-7 20 -26 10q-8 -3 -22 -9t-25.5 -11t-21.5 -10q-22 -7 -39 -16q-16 -7 -18.5 -19t7.5 -17z" />
    <glyph glyph-name="uni064F" unicode="&#x64f;" 
d="M53 6q5 -9 20 -5.5t28.5 10.5t20.5 12q17 14 33 31.5t29.5 40t11 44t-24.5 36.5q-36 24 -69 -5q-27 -23 -19 -51q6 -22 34 -30q12 -3 -14 -21q-44 -31 -51 -45q-3 -9 1 -17z" />
    <glyph glyph-name="uni0650" unicode="&#x650;" 
d="M58 2q11 -4 23 0q17 4 35 10.5t42.5 16.5t33.5 14q19 8 11 31q-7 20 -26 10q-8 -3 -22 -9t-25.5 -11t-21.5 -10q-22 -7 -39 -16q-16 -7 -18.5 -19t7.5 -17z" />
    <glyph glyph-name="uni0651" unicode="&#x651;" 
d="M154 102q-8 -6 -11 -16t-3 -18.5t-7 -17t-23 -12.5q-6 -2 -12 8t-11 22t-10 14q-21 7 -26 -25q-9 -57 46 -57q53 -1 112 41q44 31 50 61q4 23 -9 28t-26 -12q-1 0 -9 -12t-16 -22t-10 -8q-20 34 -35 26z" />
    <glyph glyph-name="uni0652" unicode="&#x652;" 
d="M113 117q-33 -2 -47 -23q-10 -14 -15 -35t2.5 -39.5t30.5 -19.5q37 -1 70 30t13 65q-13 24 -54 22zM98 48q-19 11 2 20q17 8 30 2q-2 -10 -10.5 -17.5t-17.5 -6.5z" />
    <glyph glyph-name="uni0654" unicode="&#x654;" 
d="M267 31q-3 -19 -97.5 -30.5t-110.5 0.5q-11 10 -8 25.5t16 20.5q15 7 32 11q10 2 11.5 5.5t-0.5 25.5q-1 14 -2 23q-3 47 35 69t66 -4q10 -9 6.5 -21.5t-17.5 -17.5q-21 -6 -29 -17.5t-2.5 -24t21.5 -24.5q6 -3 28.5 -6t38 -10.5t12.5 -24.5z" />
    <glyph glyph-name="uni0655" unicode="&#x655;" 
d="M267 31q-3 -19 -97.5 -30.5t-110.5 0.5q-11 10 -8 25.5t16 20.5q15 7 32 11q10 2 11.5 5.5t-0.5 25.5q-1 14 -2 23q-3 47 35 69t66 -4q10 -9 6.5 -21.5t-17.5 -17.5q-21 -6 -29 -17.5t-2.5 -24t21.5 -24.5q6 -3 28.5 -6t38 -10.5t12.5 -24.5z" />
    <glyph glyph-name="uni0660" unicode="&#x660;" horiz-adv-x="186" 
d="M127 194q-9 14 -30 19t-41.5 -3.5t-24.5 -31.5q-12 -66 33 -90q33 -18 63 3q37 26 11 83q-5 10 -11 20z" />
    <glyph glyph-name="uni0661" unicode="&#x661;" horiz-adv-x="166" 
d="M93 8q19 9 32 37t11 48q-2 21 -1 187t-11 185q-6 18 -25 34q-45 36 -59 -53q-10 -61 -10 -275q0 -32 1 -52t6 -54t19.5 -49t36.5 -8z" />
    <glyph glyph-name="uni0662" unicode="&#x662;" horiz-adv-x="374" 
d="M230 467q-115 4 -157 -45q-40 -45 -42.5 -120t20.5 -141t55.5 -115t56.5 -49q17 0 26 16t2 31q-9 19 -20.5 47.5t-25.5 71t-18.5 81t-1 72t28 50t68.5 8.5q88 -16 115 17q19 23 -10 48q-32 26 -97 28z" />
    <glyph glyph-name="uni0663" unicode="&#x663;" horiz-adv-x="454" 
d="M270 314q12 0 40 -8t40 -6q36 3 57 44.5t17 88t-32 63.5q-21 12 -35.5 3t-17.5 -33q0 -4 -0.5 -14.5t-1 -17.5t-4 -14.5t-10.5 -10.5q-19 -9 -37.5 14.5t-40.5 21.5q-17 -1 -27.5 -14t-14 -27t-13.5 -26t-26 -12q-9 0 -22.5 17t-26 35t-31 29.5t-37.5 -0.5
q-26 -22 -12 -201t36 -223q43 -85 64 3q22 93 8 264q14 -22 62.5 -15t64.5 39z" />
    <glyph glyph-name="uni0664" unicode="&#x664;" horiz-adv-x="354" 
d="M277 434q3 30 -18.5 40t-56 1.5t-65 -20t-56.5 -25.5q-31 -16 -43.5 -29.5t-5.5 -27.5t18 -24t35.5 -29t38.5 -32q18 -13 9 -35.5t-26 -40t-37.5 -41.5t-24.5 -39q-12 -43 18.5 -75t77.5 -44t93.5 -18.5t65.5 0.5q18 5 22.5 20.5t-8.5 29.5q-19 18 -46.5 29t-43 13.5
t-42.5 4.5q-24 2 -33 4.5t-8.5 12.5t17.5 31q10 12 25.5 29t22 24.5t16 20t12 19t5 17t-1.5 18t-9.5 18.5t-16 22.5t-25.5 26.5q-17 10 -23 17t0.5 13t14 9t25.5 9q10 3 16 5t16 6t15.5 7.5t12 8.5t10 11t4.5 13z" />
    <glyph glyph-name="uni0665" unicode="&#x665;" horiz-adv-x="359" 
d="M154 -7q62 0 102.5 24.5t54 60.5t18 78t-5.5 77q-9 42 -52 77t-85 34q-62 -3 -112 -70.5t-43 -178.5q2 -31 16 -53t34.5 -31.5t38 -13.5t34.5 -4zM161 87q-44 2 -41 56q2 49 34 86q34 39 61 5q18 -24 21 -59.5t-16.5 -62.5t-58.5 -25z" />
    <glyph glyph-name="uni0666" unicode="&#x666;" horiz-adv-x="382" 
d="M82 477q-28 0 -42.5 -15t-8 -34.5t33.5 -30.5q36 -12 143 -12q29 0 40.5 -27t8.5 -69t-7.5 -92t-8.5 -96t7 -81q5 -18 24.5 -25.5t36.5 1.5q36 18 42 180.5t-15 231.5q-6 22 -24 37t-38.5 21.5t-51 10t-51.5 3t-51 -1.5t-38 -1z" />
    <glyph glyph-name="uni0667" unicode="&#x667;" horiz-adv-x="406" 
d="M262 45q13 28 49 161.5t52 164.5q27 48 2 79q-21 26 -51 11q-19 -9 -31 -34q-13 -24 -53 -160.5t-41 -140.5q-5 10 -20.5 106t-46.5 153q-68 121 -87 72q-18 -49 16 -194q40 -169 98 -240q62 -75 113 22z" />
    <glyph glyph-name="uni0668" unicode="&#x668;" horiz-adv-x="391" 
d="M226 466q-59 78 -119 -54q-50 -110 -71 -275q-14 -108 2 -119q25 -14 45 -4.5t32 34.5q11 25 42 159.5t34 146.5q8 -16 19.5 -77t30 -130t44.5 -110q25 -38 51 -16q28 23 25 77q-5 85 -41.5 189.5t-93.5 178.5z" />
    <glyph glyph-name="uni0669" unicode="&#x669;" horiz-adv-x="434" 
d="M389 456q-41 49 -120 60.5t-149 -19.5t-85 -93q-15 -63 14 -100t76.5 -43t98.5 6.5t79 39.5q9 -34 -3.5 -138t-3.5 -140q10 -35 46 -31.5t52 31.5q12 30 10.5 220t-15.5 207zM177 333q-29 -3 -46.5 13.5t-14.5 40t28 36.5q75 42 116 17q29 -17 17 -49q-17 -43 -90 -56z
" />
    <glyph glyph-name="uni066A" unicode="&#x66a;" horiz-adv-x="600" 
d="M208 66q30 44 123.5 208t112.5 208q7 19 4 42q-4 20 -15.5 26.5t-25 1t-26 -15.5t-19.5 -21q-4 -7 -17 -32t-55 -99t-111 -189q-9 -16 -23.5 -44.5t-20.5 -40.5q-20 -37 -22 -63.5t10 -34.5t35.5 5.5t49.5 48.5zM492 129q4 20 -18 39t-42 19q-17 0 -30 -14.5t-13 -34.5
q-1 -24 14.5 -42t35.5 -18t36 15.5t17 35.5zM172 447q4 20 -18 39t-42 19q-17 0 -30 -14.5t-13 -34.5q-1 -24 14.5 -42t35.5 -18t36 15.5t17 35.5z" />
    <glyph glyph-name="decimalseparatorar" unicode="&#x66b;" horiz-adv-x="600" 
 />
    <glyph glyph-name="thousandseparatorar" unicode="&#x66c;" horiz-adv-x="600" 
 />
    <glyph glyph-name="uni066D" unicode="&#x66d;" horiz-adv-x="432" 
d="M133 422q-2 -1 -36 -8t-41 -18q-15 -23 4 -50q9 -12 21 -15.5t23.5 -2t25.5 -0.5q-16 -30 -18 -34q-12 -27 4.5 -44t42.5 -11q4 1 24 12t38 21t20 9q11 -8 33 -22t33 -22q56 -37 70 -1q10 29 -12 66q-14 24 -34 28q20 0 35.5 13.5t15.5 38.5q0 11 -9.5 16.5t-21 6.5
t-22 6t-11.5 16q-1 5 -1.5 17t-1.5 19.5t-3.5 17t-6.5 14.5t-11 6q-27 6 -45 -25q-3 -4 -8.5 -17.5t-7.5 -17.5q-55 36 -70 34t-30 -53z" />
    <glyph glyph-name="uni066E" unicode="&#x66e;" horiz-adv-x="837" 
d="M672 29q92 35 104 110q11 63 11 91t-13 98q-4 16 -22 22t-35 1q-15 -4 -25 -16.5t-11 -27.5q-2 -40 -1.5 -83t-2.5 -52q-7 -45 -65.5 -68.5t-136 -20t-153.5 20t-126.5 50t-46.5 71.5q1 11 4.5 28t5.5 28.5t1 26.5t-8 27q-17 32 -36 28.5t-34 -23.5t-21 -44
q-10 -37 -10.5 -68.5t7 -55.5t25.5 -44.5t38 -35t51.5 -28t60 -23t68.5 -20.5q47 -13 107.5 -19t133 0t130.5 27z" />
    <glyph glyph-name="uni067E" unicode="&#x67e;" horiz-adv-x="837" 
d="M672 29q92 35 104 110q11 63 11 91t-13 98q-4 16 -22 22t-35 1q-15 -4 -25 -16.5t-11 -27.5q-2 -40 -1.5 -83t-2.5 -52q-7 -45 -65.5 -68.5t-136 -20t-153.5 20t-126.5 50t-46.5 71.5q1 11 4.5 28t5.5 28.5t1 26.5t-8 27q-17 32 -36 28.5t-34 -23.5t-21 -44
q-10 -37 -10.5 -68.5t7 -55.5t25.5 -44.5t38 -35t51.5 -28t60 -23t68.5 -20.5q47 -13 107.5 -19t133 0t130.5 27zM464 -104q38 46 60 34t1 -65q-12 -30 -38 -65q-54 -73 -127 -15q-50 39 -74 103q-21 54 3 61q23 6 80 -43q13 -11 25.5 -25t16.5 -18.5t12 -4.5t16 8.5
t25 29.5z" />
    <glyph glyph-name="uni0686" unicode="&#x686;" horiz-adv-x="673" 
d="M372 87q-89 0 -126 -5.5t-88 -24.5q-49 -19 -78 -67q-28 -47 -30 -130q-1 -64 33.5 -114t90 -76.5t116.5 -39t119 -9.5q19 1 34 19t14 39q0 7 -3.5 12.5t-10 9t-12 6t-16 3.5t-14.5 1.5t-15 0.5l-11 1q-43 2 -82.5 11t-76 28t-56.5 53.5t-15 81.5q5 62 47 81
q19 9 39.5 14.5t46 8.5t40.5 4.5t47 2.5t42 2q8 0 34 0.5t43.5 2.5t32.5 7q86 33 101 113q20 113 -52 188q-51 52 -134 76t-153 6q-30 -8 -61 -27t-21 -42q10 -22 51 -23t61 5q87 8 157 -32q37 -21 53.5 -62t4.5 -75.5t-48 -39.5q-15 -2 -104 -10zM509 -104q38 46 60 34
t1 -65q-12 -30 -38 -65q-54 -73 -127 -15q-50 39 -74 103q-21 54 3 61q23 6 80 -43q13 -11 25.5 -25t16.5 -18.5t12 -4.5t16 8.5t25 29.5z" />
    <glyph glyph-name="uni06A1" unicode="&#x6a1;" horiz-adv-x="718" 
d="M324 82q-86 0 -130.5 33.5t-33.5 110.5q9 61 -25 70q-29 9 -57 -25q-40 -49 -23 -125q11 -51 48.5 -92t84.5 -53q69 -17 139.5 -19t129.5 10.5t108 38t74 62t28.5 82.5t-28.5 101t-91 63q-41 4 -84 -28t-60.5 -79.5t2.5 -100.5q21 -36 12 -42.5t-94 -6.5zM539 102
q-48 30 -47 87q1 41 22 51q14 6 28 -11q22 -26 21.5 -62t-24.5 -65z" />
    <glyph glyph-name="uni06A4" unicode="&#x6a4;" horiz-adv-x="718" 
d="M324 82q-86 0 -130.5 33.5t-33.5 110.5q9 61 -25 70q-29 9 -57 -25q-40 -49 -23 -125q11 -51 48.5 -92t84.5 -53q69 -17 139.5 -19t129.5 10.5t108 38t74 62t28.5 82.5t-28.5 101t-91 63q-41 4 -84 -28t-60.5 -79.5t2.5 -100.5q21 -36 12 -42.5t-94 -6.5zM539 102
q-48 30 -47 87q1 41 22 51q14 6 28 -11q22 -26 21.5 -62t-24.5 -65zM558 424q-17 21 -25 29.5t-16 8.5t-12 -4.5t-16.5 -18.5t-25.5 -25q-79 -69 -91 -32q-9 29 28 90q44 72 96 86q48 11 85 -38q57 -78 46 -117q-7 -26 -36 -9q-16 9 -33 30z" />
    <glyph glyph-name="endash" unicode="&#x2013;" horiz-adv-x="462" 
d="M202 305h-41h-21h-21.5h-19.5t-19 -1.5t-16 -4t-14 -6.5t-10.5 -9.5t-7.5 -14t-2 -18.5q0 -33 71 -37q47 -1 281 8q19 0 32.5 12t14.5 30q15 31 -42.5 39t-184.5 2z" />
    <glyph glyph-name="emdash" unicode="&#x2014;" horiz-adv-x="646" 
d="M278 305h-60q-13 0 -48 1.5t-53 1t-42 -5t-34.5 -17.5t-10.5 -34q0 -33 98 -37q69 -1 421 8q26 0 43 11t18 29q22 29 -39 39q-64 11 -293 4z" />
    <glyph glyph-name="quoteleft" unicode="&#x2018;" horiz-adv-x="209" 
d="M123 337q33 11 48 37t3 53.5t-50 38.5q47 68 47 80v2q0 13 -11.5 23.5t-29.5 15.5q-31 3 -65.5 -65t-34.5 -112q0 -42 24 -64t69 -9z" />
    <glyph glyph-name="quoteright" unicode="&#x2019;" horiz-adv-x="207" 
d="M85 580q-48 -15 -54 -67.5t39 -85.5q-33 -38 -33 -57q0 -45 28 -42q32 3 70 57q42 58 42 115v7q0 41 -24 63.5t-68 9.5z" />
    <glyph glyph-name="quotesinglbase" unicode="&#x201a;" horiz-adv-x="204" 
d="M82 105q-32 -9 -46 -36.5t0 -56.5t53 -40q-56 -64 -56 -76q0 -47 28 -43q32 3 71 59q42 60 42 114v6q0 42 -24 64.5t-68 8.5z" />
    <glyph glyph-name="quotedblleft" unicode="&#x201c;" horiz-adv-x="474" 
d="M370 394q57 0 71 50q12 43 -15 79q-31 42 -79 15q-20 -11 -39 -33q-4 21 0.5 36.5t13 24t18 15t16 13t5.5 14.5q-21 40 -50 40q-45 0 -64.5 -34.5t-15.5 -82.5q3 -47 43.5 -91t95.5 -46zM170 364q57 0 71 50q12 43 -15 79q-31 42 -79 15q-20 -11 -39 -33q-4 21 0.5 36.5
t13 24t18 15t16 13t5.5 14.5q-21 40 -50 40q-45 0 -64.5 -34.5t-15.5 -82.5q3 -47 43.5 -91t95.5 -46z" />
    <glyph glyph-name="quotedblright" unicode="&#x201d;" horiz-adv-x="474" 
d="M304 598q-57 0 -71 -50q-12 -43 15 -79q31 -42 79 -15q20 11 39 33q4 -21 -0.5 -36.5t-13 -24t-18 -15t-16 -13t-5.5 -14.5q21 -40 50 -40q45 0 64.5 34.5t15.5 82.5q-3 47 -43.5 91t-95.5 46zM104 568q-57 0 -71 -50q-12 -43 15 -79q31 -42 79 -15q20 11 39 33
q4 -21 -0.5 -36.5t-13 -24t-18 -15t-16 -13t-5.5 -14.5q21 -40 50 -40q45 0 64.5 34.5t15.5 82.5q-3 47 -43.5 91t-95.5 46z" />
    <glyph glyph-name="quotedblbase" unicode="&#x201e;" horiz-adv-x="474" 
d="M304 128q-57 0 -71 -50q-12 -43 15 -79q31 -42 79 -15q20 11 39 33q4 -21 -0.5 -36.5t-13 -24t-18 -15t-16 -13t-5.5 -14.5q21 -40 50 -40q45 0 64.5 34.5t15.5 82.5q-3 47 -43.5 91t-95.5 46zM104 98q-57 0 -71 -50q-12 -43 15 -79q31 -42 79 -15q20 11 39 33
q4 -21 -0.5 -36.5t-13 -24t-18 -15t-16 -13t-5.5 -14.5q21 -40 50 -40q45 0 64.5 34.5t15.5 82.5q-3 47 -43.5 91t-95.5 46z" />
    <glyph glyph-name="bullet" unicode="&#x2022;" horiz-adv-x="222" 
d="M111 380q-37 0 -59 -25.5t-22 -69.5l2 -16q9 -23 32.5 -36t54.5 -12l19 2q39 16 51 54.5t-10 70.5t-68 32z" />
    <glyph glyph-name="guilsinglleft" unicode="&#x2039;" horiz-adv-x="334" 
d="M304 133l-156 85q87 102 110 142l9 29q0 21 -20.5 29t-45.5 -1q-171 -174 -171 -210v-8q0 -17 51 -47t181 -96q18 -2 30 15t12 42v20z" />
    <glyph glyph-name="guilsinglright" unicode="&#x203a;" horiz-adv-x="335" 
d="M30 105v-20q0 -26 11.5 -42.5t31.5 -14.5q131 67 181.5 96.5t50.5 46.5v8q0 35 -172 210q-25 9 -45.5 1t-20.5 -29l10 -29q22 -38 110 -142z" />
    <glyph glyph-name="fraction" unicode="&#x2044;" horiz-adv-x="357" 
d="M296 517q-50 2 -63 -33q-203 -415 -203 -437v-15q13 -60 86 17q76 81 148 226q82 165 58 221q-7 18 -26 21z" />
    <glyph glyph-name="Euro" unicode="&#x20ac;" horiz-adv-x="557" 
d="M486 86q22 2 33.5 -13.5t6.5 -38.5q-3 -23 -64.5 -41t-139 -15t-117.5 34q-58 44 -65 132q-45 5 -73 13.5t-34.5 17.5t2 17.5t37 15.5t70.5 10l2 15q-16 -1 -30.5 -1.5t-24.5 6.5t-10 22q0 37 19 48.5t59 11.5l2 7q15 89 79 178t135 89q31 0 57 -17.5t39 -44t16 -54.5
t-12 -51t-44 -31q-14 0 -29.5 23t-25.5 46l-11 23q-34 0 -67 -49t-53 -120h7q141 10 133 -41q-20 -44 -122 -42l-34 1l-1 -17h25q65 5 101 -5t32 -36q-19 -44 -122 -42l-32 1q10 -43 37 -56q9 -5 17.5 -8.5t15 -6t16 -3.5t15.5 -2t18 0.5t19 2t23.5 3.5t25.5 4.5t32 6
t37 7.5z" />
    <glyph glyph-name="minus" unicode="&#x2212;" horiz-adv-x="431" 
d="M202 305h-41q-11 0 -32.5 1t-32 1t-26 -2.5t-22.5 -8t-12.5 -17t-5.5 -28.5q0 -33 71 -37q54 -2 250 0q19 0 32.5 12t14.5 30q15 30 -35.5 40.5t-160.5 8.5z" />
    <glyph glyph-name="approxequal" unicode="&#x2248;" horiz-adv-x="492" 
d="M188 385q-89 5 -135 -54q-29 -39 -17 -69q12 -32 59 -9q23 11 51 35q11 10 34.5 9t39.5 -12q22 -19 85 -35q59 -6 105 9q38 12 47.5 38.5t-11.5 43.5t-56 7q-41 -14 -67.5 -11t-34 12.5t-33.5 21t-67 14.5zM191 266q-89 4 -135 -53q-30 -38 -18 -68q13 -31 62 -8
q22 10 48 32q12 11 35.5 10t38.5 -13q25 -20 86 -35q58 -5 105 9q38 12 47 38.5t-11.5 44t-55.5 7.5q-37 -12 -56.5 -14t-29 5t-17.5 16t-33 18t-66 11z" />
    <glyph glyph-name="lessequal" unicode="&#x2264;" horiz-adv-x="432" 
d="M165 207l114 34l40 17q77 37 80 69v6q0 22 -22 29.5t-52 0.5q-42 -22 -124.5 -57.5t-125.5 -60t-43 -46.5q0 -12 7.5 -22.5t20.5 -14.5l297 -97q19 -2 30 15t11 42v23zM202 53h-41q-10 0 -28 0.5t-27.5 0.5t-23.5 -1t-22 -4t-15.5 -9t-11 -16t-3.5 -24q0 -35 71 -37
q54 -2 251 0q20 0 33 11.5t14 30.5q8 16 -2.5 26t-39 15t-65 6.5t-90.5 0.5z" />
    <glyph glyph-name="greaterequal" unicode="&#x2265;" horiz-adv-x="436" 
d="M263 207l-233 -85q0 -25 11.5 -42t29.5 -15l297 97q72 22 3 68q-33 22 -140 71q-89 41 -128 62q-30 7 -51.5 -0.5t-21.5 -29.5l9 -27q18 -22 70 -48l39 -17zM206 50h-40q-10 0 -28 0.5t-27.5 0.5t-24 -1t-22 -4.5t-15.5 -9.5t-11.5 -16t-3.5 -24q0 -16 20 -25.5t50 -10.5
q47 -3 252 -1q19 0 32.5 12.5t13.5 30.5q8 16 -1.5 26.5t-38.5 15t-65 6t-91 0.5z" />
    <glyph glyph-name="dotabovear" unicode="&#xfbb2;" 
d="M138 83q-16 23 -43 19.5t-38.5 -25t3.5 -51.5q19 -30 46 -25.5t36.5 29.5t-4.5 53z" />
    <glyph glyph-name="dotbelowar" unicode="&#xfbb3;" 
d="M138 76q-19 16 -41 18t-35 -16.5t-2 -47.5q15 -39 51 -28q29 9 37 35q6 21 -10 39z" />
    <glyph glyph-name="twodotshorizontalabovear" unicode="&#xfbb4;" 
d="M271 82q-14 20 -42.5 22t-47.5 -16t-8 -47q15 -42 56 -36q34 5 47 33q10 22 -5 44zM157 82q-22 16 -53.5 14t-45.5 -19t0 -46q16 -25 44 -27t47 11q28 14 29 33q2 17 -21 34z" />
    <glyph glyph-name="twodotshorizontalbelowar" unicode="&#xfbb5;" 
d="M271 69q-16 22 -43.5 23.5t-45.5 -12.5q-31 -20 -29 -32q3 -23 43 -38q35 -13 66.5 6.5t8.5 52.5zM157 82q-15 23 -42.5 21.5t-48 -25t-8.5 -47.5q17 -34 48.5 -35t49 26t1.5 60z" />
    <glyph glyph-name="threedotsupabovear" unicode="&#xfbb6;" 
d="M246 52q-17 21 -25 29.5t-16 8.5t-12 -4.5t-16.5 -18.5t-25.5 -25q-79 -69 -91 -32q-9 29 28 90q44 72 96 86q48 11 85 -38q57 -78 46 -117q-7 -26 -36 -9q-17 10 -33 30z" />
    <glyph glyph-name="threedotsupbelowar" unicode="&#xfbb7;" 
d="M246 134q38 46 60 34t1 -65q-12 -30 -38 -65q-54 -73 -127 -15q-50 39 -74 103q-21 54 3 61q23 6 80 -43q13 -11 25.5 -25t16.5 -18.5t12 -4.5t16 8.5t25 29.5z" />
    <glyph glyph-name="threedotsdownbelowar" unicode="&#xfbb9;" 
d="M206 112q32 39 50 28q20 -12 -2 -60q-10 -23 -29 -48q-47 -63 -110 -9q-43 36 -60 90q-14 45 11 44q20 -1 61 -37q11 -9 21.5 -20.5t13.5 -15.5t10 -4t13.5 7.5t20.5 24.5z" />
    <glyph glyph-name="uniFD3E" unicode="&#xfd3e;" horiz-adv-x="333" 
d="M274 13q9 9 9 22t-10 25t-22.5 29t-29.5 34.5t-30 41t-24 47.5t-12 56t6.5 65.5t31.5 75.5t62 87q15 19 2.5 41.5t-36.5 27.5q-32 6 -65 -27q-124 -122 -103 -291q15 -116 84 -196q58 -66 108 -54q17 4 29 16z" />
    <glyph glyph-name="uniFD3F" unicode="&#xfd3f;" horiz-adv-x="333" 
d="M59 13q41 -41 104 7q66 50 100 153q49 148 -19 277q-26 48 -67 88q-33 33 -65 27q-24 -5 -36.5 -27.5t2.5 -41.5q38 -45 62 -87t31.5 -75.5t6.5 -65.5t-12 -56t-24 -47.5t-30 -41t-29.5 -34.5t-22.5 -29t-10 -25t9 -22z" />
    <glyph glyph-name="uni062B062D" horiz-adv-x="636" 
d="M417 511q-17 21 -25 29.5t-16 8.5t-12 -4.5t-16.5 -18.5t-25.5 -25q-79 -69 -91 -32q-9 29 28 90q44 72 96 86q48 11 85 -38q57 -78 46 -117q-7 -26 -36 -9q-17 10 -33 30zM165 -183q-4 -37 8.5 -67.5t33.5 -49t49.5 -32t52.5 -19t46 -6.5l11 -1q11 0 15 -0.5t14.5 -1.5
t16 -3.5t12 -6t10 -9t3.5 -12.5q1 -21 -14 -39t-34 -19q-81 -4 -155.5 21t-122 71.5t-59.5 111t32 138.5q21 35 44 57.5t56.5 34.5t57.5 17t78 12t87 13q60 11 71.5 41t-43.5 64q-24 14 -120.5 31.5t-119.5 33.5q-30 23 -16 41.5t50 13.5q16 -2 24.5 -3t24.5 -1.5t24 2.5
l20 7.5t17.5 14t10 23t3.5 33.5t-6 46q-9 41 18 52q25 11 47 -18q11 -15 17 -35q11 -41 8 -82.5t-16 -68.5q60 -17 99.5 -44.5t54.5 -57.5t9.5 -62t-29.5 -58t-67.5 -45t-100.5 -25q-12 -1 -48 -3.5t-51 -4.5t-43 -9t-40.5 -17.5t-25 -30.5t-14.5 -48z" />
    <glyph glyph-name="uni062B062E" horiz-adv-x="636" 
d="M417 511q-17 21 -25 29.5t-16 8.5t-12 -4.5t-16.5 -18.5t-25.5 -25q-79 -69 -91 -32q-9 29 28 90q44 72 96 86q48 11 85 -38q57 -78 46 -117q-7 -26 -36 -9q-17 10 -33 30zM210 424q-16 23 -43 19.5t-38.5 -25t3.5 -51.5q19 -30 46 -25.5t36.5 29.5t-4.5 53zM165 -183
q-4 -37 8.5 -67.5t33.5 -49t49.5 -32t52.5 -19t46 -6.5l11 -1q11 0 15 -0.5t14.5 -1.5t16 -3.5t12 -6t10 -9t3.5 -12.5q1 -21 -14 -39t-34 -19q-81 -4 -155.5 21t-122 71.5t-59.5 111t32 138.5q21 35 44 57.5t56.5 34.5t57.5 17t78 12t87 13q60 11 71.5 41t-43.5 64
q-24 14 -120.5 31.5t-119.5 33.5q-30 23 -16 41.5t50 13.5q16 -2 24.5 -3t24.5 -1.5t24 2.5l20 7.5t17.5 14t10 23t3.5 33.5t-6 46q-9 41 18 52q25 11 47 -18q11 -15 17 -35q11 -41 8 -82.5t-16 -68.5q60 -17 99.5 -44.5t54.5 -57.5t9.5 -62t-29.5 -58t-67.5 -45t-100.5 -25
q-12 -1 -48 -3.5t-51 -4.5t-43 -9t-40.5 -17.5t-25 -30.5t-14.5 -48z" />
    <glyph glyph-name="uni06440626" horiz-adv-x="638" 
d="M573 532q1 -13 5 -41.5t6 -47t3 -46.5t-1 -47.5t-9 -43t-19 -39.5t-32 -30.5t-47 -22.5q-37 -12 -53.5 -40t3.5 -63q8 -11 24.5 -33.5t25.5 -35t18 -33.5t11 -43q6 -44 -26 -79.5t-77 -47.5q-71 -17 -139.5 -3t-128.5 54q-90 60 -87 153q2 33 26.5 49.5t45.5 -8.5
q13 -17 27 -67t40 -69q36 -26 85.5 -34.5t92.5 2.5q20 5 34 19t15 33q0 12 -5.5 25t-11.5 21.5t-18 23t-15 18.5q-39 52 -44 105q-7 67 51 105q21 15 43 24t33.5 12t21.5 10.5t14 22.5t4 45q0 44 -3 83t-3 49q0 63 34 77q26 12 44 -16q11 -16 12 -41zM219 182
q-3 -19 -97.5 -30.5t-110.5 0.5q-11 10 -8 25.5t16 20.5q15 7 32 11q10 2 11.5 5.5t-0.5 25.5q-1 14 -2 23q-3 47 35 69t66 -4q10 -9 6.5 -21.5t-17.5 -17.5q-21 -6 -29 -17.5t-2.5 -24t21.5 -24.5q6 -3 28.5 -6t38 -10.5t12.5 -24.5z" />
    <glyph glyph-name="uni0626062E" horiz-adv-x="636" 
d="M482 512q-3 -19 -97.5 -30.5t-110.5 0.5q-11 10 -8 25.5t16 20.5q15 7 32 11q10 2 11.5 5.5t-0.5 25.5q-1 14 -2 23q-3 47 35 69t66 -4q10 -9 6.5 -21.5t-17.5 -17.5q-21 -6 -29 -17.5t-2.5 -24t21.5 -24.5q6 -3 28.5 -6t38 -10.5t12.5 -24.5zM165 -183q-4 -37 8.5 -67.5
t33.5 -49t49.5 -32t52.5 -19t46 -6.5l11 -1q11 0 15 -0.5t14.5 -1.5t16 -3.5t12 -6t10 -9t3.5 -12.5q1 -21 -14 -39t-34 -19q-81 -4 -155.5 21t-122 71.5t-59.5 111t32 138.5q21 35 44 57.5t56.5 34.5t57.5 17t78 12t87 13q60 11 71.5 41t-43.5 64q-24 14 -120.5 31.5
t-119.5 33.5q-30 23 -16 41.5t50 13.5q16 -2 24.5 -3t24.5 -1.5t24 2.5l20 7.5t17.5 14t10 23t3.5 33.5t-6 46q-9 41 18 52q25 11 47 -18q11 -15 17 -35q11 -41 8 -82.5t-16 -68.5q60 -17 99.5 -44.5t54.5 -57.5t9.5 -62t-29.5 -58t-67.5 -45t-100.5 -25q-12 -1 -48 -3.5
t-51 -4.5t-43 -9t-40.5 -17.5t-25 -30.5t-14.5 -48zM210 424q-16 23 -43 19.5t-38.5 -25t3.5 -51.5q19 -30 46 -25.5t36.5 29.5t-4.5 53z" />
    <glyph glyph-name="uni06440626.fina" horiz-adv-x="693" 
d="M621 156q4 -27 11 -43.5t19.5 -22.5t19.5 -7t22 -1v-82q-102 0 -133.5 48t-30.5 187q-28 -6 -50.5 -15t-43 -24.5t-21 -36t14.5 -48.5q8 -11 24.5 -33.5t25.5 -35t18 -33.5t11 -43q6 -44 -26 -79.5t-77 -47.5q-71 -17 -139.5 -3t-128.5 54q-90 60 -87 153q2 33 26.5 49.5
t45.5 -8.5q13 -17 27 -67t40 -69q36 -26 85.5 -34.5t92.5 2.5q20 5 34 19t15 33q0 12 -5.5 25t-11.5 21.5t-18 23t-15 18.5q-39 52 -44 105q-7 67 55 109t153 46q6 237 6 240q1 18 13 29t26.5 12t27.5 -8.5t16 -28.5q3 -20 -2 -177.5t4 -226.5zM218 181q-3 -19 -97.5 -30.5
t-110.5 0.5q-11 10 -8 25.5t16 20.5q15 7 32 11q10 2 11.5 5.5t-0.5 25.5q-1 14 -2 23q-3 47 35 69t66 -4q10 -9 6.5 -21.5t-17.5 -17.5q-21 -6 -29 -17.5t-2.5 -24t21.5 -24.5q6 -3 28.5 -6t38 -10.5t12.5 -24.5z" />
    <glyph glyph-name="uni062B062D.init" horiz-adv-x="480" 
d="M285 599q-17 21 -25 29.5t-16 8.5t-12 -4.5t-16.5 -18.5t-25.5 -25q-79 -69 -91 -32q-9 29 28 90q44 72 96 86q48 11 85 -38q57 -78 46 -117q-7 -26 -36 -9q-17 10 -33 30zM254 290q39 -13 58 -19.5t48.5 -21t42.5 -28.5t21.5 -37t3.5 -50q-5 -30 -20 -52.5t-43.5 -36.5
t-59.5 -23t-83.5 -13.5t-99 -6t-121.5 -2.5q-51 0 -51 41t50 41q176 -1 216 3q101 11 101 60q0 21 -62.5 43.5t-128 47t-70.5 48.5q-6 25 4 37.5t39 12t76 -16.5q18 -6 27.5 0t11.5 22t1.5 32t-3 39t-2.5 33q0 49 19.5 66.5t41 -1.5t26.5 -59q11 -55 4 -96.5t-47 -62.5z" />
    <glyph glyph-name="uni062B062E.init" horiz-adv-x="480" 
d="M285 599q-17 21 -25 29.5t-16 8.5t-12 -4.5t-16.5 -18.5t-25.5 -25q-79 -69 -91 -32q-9 29 28 90q44 72 96 86q48 11 85 -38q57 -78 46 -117q-7 -26 -36 -9q-17 10 -33 30zM70 498q-16 23 -43 19.5t-38.5 -25t3.5 -51.5q19 -30 46 -25.5t36.5 29.5t-4.5 53zM254 290
q39 -13 58 -19.5t48.5 -21t42.5 -28.5t21.5 -37t3.5 -50q-5 -30 -20 -52.5t-43.5 -36.5t-59.5 -23t-83.5 -13.5t-99 -6t-121.5 -2.5q-51 0 -51 41t50 41q176 -1 216 3q101 11 101 60q0 21 -62.5 43.5t-128 47t-70.5 48.5q-6 25 4 37.5t39 12t76 -16.5q18 -6 27.5 0t11.5 22
t1.5 32t-3 39t-2.5 33q0 49 19.5 66.5t41 -1.5t26.5 -59q11 -55 4 -96.5t-47 -62.5z" />
    <glyph glyph-name="uniFC11.init" horiz-adv-x="480" 
d="M285 599q-17 21 -25 29.5t-16 8.5t-12 -4.5t-16.5 -18.5t-25.5 -25q-79 -69 -91 -32q-9 29 28 90q44 72 96 86q48 11 85 -38q57 -78 46 -117q-7 -26 -36 -9q-17 10 -33 30zM246 -63q-16 23 -43 19.5t-38.5 -25t3.5 -51.5q19 -30 46 -25.5t36.5 29.5t-4.5 53zM254 290
q39 -13 58 -19.5t48.5 -21t42.5 -28.5t21.5 -37t3.5 -50q-5 -30 -20 -52.5t-43.5 -36.5t-59.5 -23t-83.5 -13.5t-99 -6t-121.5 -2.5q-51 0 -51 41t50 41q176 -1 216 3q101 11 101 60q0 21 -62.5 43.5t-128 47t-70.5 48.5q-6 25 4 37.5t39 12t76 -16.5q18 -6 27.5 0t11.5 22
t1.5 32t-3 39t-2.5 33q0 49 19.5 66.5t41 -1.5t26.5 -59q11 -55 4 -96.5t-47 -62.5z" />
    <glyph glyph-name="shaddaDammaar" 
d="M154 102q-8 -6 -11 -16t-3 -18.5t-7 -17t-23 -12.5q-6 -2 -12 8t-11 22t-10 14q-21 7 -26 -25q-9 -57 46 -57q53 -1 112 41q44 31 50 61q4 23 -9 28t-26 -12q-1 0 -9 -12t-16 -22t-10 -8q-20 34 -35 26zM85 118q5 -9 20 -5.5t28.5 10.5t20.5 12q17 14 33 31.5t29.5 40
t11 44t-24.5 36.5q-36 24 -69 -5q-27 -23 -19 -51q6 -22 34 -30q12 -3 -14 -21q-44 -31 -51 -45q-3 -9 1 -17z" />
    <glyph glyph-name="shaddaDammatanar" 
d="M134 169q-16 22 -24 30q-38 40 -95 33q-24 -4 -41 -19.5t-6 -37.5q5 -9 12 -10t13.5 2t15 8t12.5 6q26 7 38.5 -7.5t21.5 -35.5t24 -26q30 -10 85 37q56 47 60 88q3 26 -23 36q-25 14 -57 4.5t-31 -43.5q0 -10 8.5 -19.5t16.5 -11t13 4.5q-10 -19 -43 -39zM154 102
q-8 -6 -11 -16t-3 -18.5t-7 -17t-23 -12.5q-6 -2 -12 8t-11 22t-10 14q-21 7 -26 -25q-9 -57 46 -57q53 -1 112 41q44 31 50 61q4 23 -9 28t-26 -12q-1 0 -9 -12t-16 -22t-10 -8q-20 34 -35 26z" />
    <glyph glyph-name="shaddaFathaar" 
d="M78 122q11 -4 23 0q17 4 35 10.5t42.5 16.5t33.5 14q19 8 11 31q-7 20 -26 10l-69 -30q-22 -7 -39 -16q-16 -7 -18.5 -19t7.5 -17zM154 102q-8 -6 -11 -16t-3 -18.5t-7 -17t-23 -12.5q-6 -2 -12 8t-11 22t-10 14q-21 7 -26 -25q-9 -57 46 -57q53 -1 112 41q44 31 50 61
q4 23 -9 28t-26 -12q-1 0 -9 -12t-16 -22t-10 -8q-20 34 -35 26z" />
    <glyph glyph-name="shaddaFathatanar" 
d="M222 275q-20 5 -99.5 -24t-80.5 -50q-1 -11 10.5 -15.5t21.5 -0.5q46 21 74 30q12 4 36 9t33 7q22 6 22.5 22.5t-17.5 21.5zM217 209q-34 -6 -98.5 -32.5t-65.5 -42.5q-1 -11 10.5 -15.5t21.5 -0.5q46 21 74 30q12 4 36 9t33 7q32 9 25 27t-36 18zM154 102q-8 -6 -11 -16
t-3 -18.5t-7 -17t-23 -12.5q-6 -2 -12 8t-11 22t-10 14q-21 7 -26 -25q-9 -57 46 -57q53 -1 112 41q44 31 50 61q4 23 -9 28t-26 -12q-1 0 -9 -12t-16 -22t-10 -8q-20 34 -35 26z" />
    <glyph glyph-name="shaddaKasraar" 
d="M154 102q-8 -6 -11 -16t-3 -18.5t-7 -17t-23 -12.5q-6 -2 -12 8t-11 22t-10 14q-21 7 -26 -25q-9 -57 46 -57q53 -1 112 41q44 31 50 61q4 23 -9 28t-26 -12q-1 0 -9 -12t-16 -22t-10 -8q-20 34 -35 26zM89 -84q11 -4 23 0q17 4 35 10.5t42.5 16.5t33.5 14q19 8 11 31
q-7 20 -26 10q-8 -3 -22 -9t-25.5 -11t-21.5 -10q-22 -7 -39 -16q-16 -7 -18.5 -19t7.5 -17z" />
    <glyph glyph-name="shaddaKasratanar" 
d="M243 -13q-20 5 -99.5 -24t-80.5 -50q-1 -11 10.5 -15.5t21.5 -0.5q46 21 74 30q12 4 36 9t33 7q22 6 22.5 22.5t-17.5 21.5zM238 -79q-34 -6 -98.5 -32.5t-65.5 -42.5q-1 -11 10.5 -15.5t21.5 -0.5q46 21 74 30q12 4 36 9t33 7q32 9 25 27t-36 18zM154 102q-8 -6 -11 -16
t-3 -18.5t-7 -17t-23 -12.5q-6 -2 -12 8t-11 22t-10 14q-21 7 -26 -25q-9 -57 46 -57q53 -1 112 41q44 31 50 61q4 23 -9 28t-26 -12q-1 0 -9 -12t-16 -22t-10 -8q-20 34 -35 26z" />
    <glyph glyph-name="sheen_dots" horiz-adv-x="425" 
d="M293 34q-26 32 -52 41.5t-49.5 0.5t-52.5 -34q-75 -65 -80 -39q-4 23 40 78q63 78 127 89q54 9 90 -40q59 -70 50 -112q-6 -26 -33 -17q-19 8 -40 33z" />
    <glyph glyph-name="maddah" horiz-adv-x="428" 
d="M213 9q31 -15 63 -6q9 3 17.5 7t17.5 10t14.5 10t16 12.5t13.5 11.5q13 11 20 34.5t-1 41.5t-34 12q-13 -3 -33.5 -30.5t-30.5 -34.5q-19 -10 -37.5 -3t-32 20.5t-33.5 19.5t-40 -7q-38 -23 -67.5 -60t-5.5 -55q14 -11 24 -1.5t16.5 26.5t22.5 25.5t41 -3.5
q1 -1 21 -13.5t28 -16.5z" />
    <glyph glyph-name="nabera_hahar" horiz-adv-x="636" 
d="M165 -183q-4 -37 8.5 -67.5t33.5 -49t49.5 -32t52.5 -19t46 -6.5l11 -1q11 0 15 -0.5t14.5 -1.5t16 -3.5t12 -6t10 -9t3.5 -12.5q1 -21 -14 -39t-34 -19q-81 -4 -155.5 21t-122 71.5t-59.5 111t32 138.5q21 35 44 57.5t56.5 34.5t57.5 17t78 12t87 13q60 11 71.5 41
t-43.5 64q-24 14 -120.5 31.5t-119.5 33.5q-30 23 -16 41.5t50 13.5q16 -2 24.5 -3t24.5 -1.5t24 2.5l20 7.5t17.5 14t10 23t3.5 33.5t-6 46q-9 41 18 52q25 11 47 -18q11 -15 17 -35q11 -41 8 -82.5t-16 -68.5q60 -17 99.5 -44.5t54.5 -57.5t9.5 -62t-29.5 -58t-67.5 -45
t-100.5 -25q-12 -1 -48 -3.5t-51 -4.5t-43 -9t-40.5 -17.5t-25 -30.5t-14.5 -48z" />
    <glyph glyph-name="nabera_hahar.init" horiz-adv-x="480" 
d="M254 290q39 -13 58 -19.5t48.5 -21t42.5 -28.5t21.5 -37t3.5 -50q-5 -30 -20 -52.5t-43.5 -36.5t-59.5 -23t-83.5 -13.5t-99 -6t-121.5 -2.5q-51 0 -51 41t50 41q176 -1 216 3q101 11 101 60q0 21 -62.5 43.5t-128 47t-70.5 48.5q-6 25 4 37.5t39 12t76 -16.5
q18 -6 27.5 0t11.5 22t1.5 32t-3 39t-2.5 33q0 49 19.5 66.5t41 -1.5t26.5 -59q11 -55 4 -96.5t-47 -62.5z" />
    <glyph glyph-name="newGlyph" horiz-adv-x="600" 
 />
    <glyph glyph-name="newGlyph.001" horiz-adv-x="600" 
 />
    <glyph glyph-name="newGlyph.002" horiz-adv-x="600" 
 />
  </font>
</defs>
</svg>
