<svg xmlns="http://www.w3.org/2000/svg">
<defs>
<font id="FrutigerLTArabic-65Bold" horiz-adv-x="1139" >
  <font-face 
    font-family="Frutiger LT Arabic 45 Light"
    font-weight="700"
    font-stretch="normal"
    units-per-em="2048"
    panose-1="1 0 0 0 0 0 0 0 0 0"
    ascent="1577"
    descent="-471"
    x-height="1055"
    cap-height="1430"
    bbox="-411 -915 2914 2383"
    underline-thickness="50"
    underline-position="-175"
    unicode-range="U+000D-FEFC"
  />
<missing-glyph horiz-adv-x="1021" 
d="M443 234v133h111v-133h-111zM449 466q-1 8 -2.5 17t-1.5 17q0 18 1 39.5t3.5 43t7.5 42.5t13 37q18 37 50 70.5t63.5 67t55 69t23.5 76.5q0 32 -11 62.5t-31 54.5t-48 38.5t-62 14.5q-41 0 -70 -16t-48.5 -43t-30 -61t-14.5 -70l-100 16q6 59 24.5 109t51.5 86.5t81 57
t112 20.5q57 0 102.5 -20.5t77.5 -55.5t49.5 -82.5t17.5 -102.5q0 -50 -13 -87t-33.5 -66.5t-45.5 -53t-48.5 -45t-42.5 -43.5t-28 -48q-4 -13 -6.5 -32t-3.5 -39.5t-1.5 -40t-0.5 -32.5h-91zM921 99v1231h-822v-1231h822zM1021 1431v-1431h-1021v1431h1021z" />
    <glyph glyph-name="uniFEF5" unicode="&#xfedf;&#xfe82;" horiz-adv-x="1507" arabic-form="isolated" 
d="M1355 1437v-1437h-1232v219h448v880h261v-880h263v1218h260zM261 1329q31 34 58.5 55t53 32.5t50.5 15t52 3.5q21 0 47 -5.5t53.5 -14.5t55.5 -20.5t54 -23.5q0 -2 4 -2q45 -18 84 -31.5t62 -13.5q18 0 32 10t24.5 25.5t18.5 34t14 34.5l128 -59q-19 -45 -38 -80
t-44.5 -59t-61.5 -36t-90 -12q-23 0 -48 5t-51 13t-51.5 18t-47.5 20q-45 20 -90.5 36.5t-83.5 16.5q-10 0 -20 -2t-21.5 -8t-26 -18t-33.5 -33z" />
    <glyph glyph-name="uniFEF6" unicode="&#xfee0;&#xfe82;" horiz-adv-x="1585" arabic-form="final" 
d="M1363 329q0 -18 -1.5 -35.5t-3.5 -34.5q49 -20 105.5 -30t117.5 -10h8q28 0 44 -4t23.5 -13t9 -22.5t1.5 -32.5v-70q0 -26 -3 -41t-12 -23t-24 -10.5t-39 -2.5h-11q-100 0 -170.5 22.5t-124.5 59.5q-35 -38 -87.5 -60t-127.5 -22h-928v219h435v880h259v-880h145
q33 0 56.5 7t38 23.5t21.5 44.5t7 70v1076h261v-1111zM271 1327q31 34 58.5 55t53 32.5t50.5 15t52 3.5q21 0 47 -5.5t53.5 -14.5t55.5 -20.5t54 -23.5q0 -2 4 -2q45 -18 84 -31.5t62 -13.5q18 0 32 10t24.5 25.5t18.5 34t14 34.5l128 -59q-19 -45 -38 -80t-44.5 -59
t-61.5 -36t-90 -12q-23 0 -48 5t-51 13t-51.5 18t-47.5 20q-45 20 -90.5 36.5t-83.5 16.5q-10 0 -20 -2t-21.5 -8t-26 -18t-33.5 -33z" />
    <glyph glyph-name="uniFEF7" unicode="&#xfedf;&#xfe84;" horiz-adv-x="1507" arabic-form="isolated" 
d="M1355 1437v-1437h-1232v219h448v880h261v-880h263v1218h260zM870 1445q-16 3 -41.5 6t-42.5 3q-32 0 -52 -13.5t-20 -47.5t29.5 -59.5t91.5 -25.5h58v-121h-372v121h98q-16 20 -29.5 49t-13.5 61q0 30 11.5 58.5t36.5 51t63.5 36t91.5 13.5q23 0 49.5 -1.5t61.5 -7.5z
" />
    <glyph glyph-name="uniFEF8" unicode="&#xfee0;&#xfe84;" horiz-adv-x="1585" arabic-form="final" 
d="M1363 329q0 -18 -1.5 -35.5t-3.5 -34.5q49 -20 105.5 -30t117.5 -10h8q28 0 44 -4t23.5 -13t9 -22.5t1.5 -32.5v-70q0 -26 -3 -41t-12 -23t-24 -10.5t-39 -2.5h-11q-100 0 -170.5 22.5t-124.5 59.5q-35 -38 -87.5 -60t-127.5 -22h-928v219h435v880h259v-880h145
q33 0 56.5 7t38 23.5t21.5 44.5t7 70v1076h261v-1111zM870 1445q-16 3 -41.5 6t-42.5 3q-32 0 -52 -13.5t-20 -47.5t29.5 -59.5t91.5 -25.5h58v-121h-372v121h98q-16 20 -29.5 49t-13.5 61q0 30 11.5 58.5t36.5 51t63.5 36t91.5 13.5q23 0 49.5 -1.5t61.5 -7.5z" />
    <glyph glyph-name="uniFEF9" unicode="&#xfedf;&#xfe88;" horiz-adv-x="1507" arabic-form="isolated" 
d="M1355 1437v-1437h-1232v219h448v880h261v-880h263v1218h260zM866 -274q-16 3 -41.5 6t-42.5 3q-32 0 -52 -13.5t-20 -47.5t29.5 -59.5t91.5 -25.5h58v-121h-372v121h98q-16 20 -29.5 49t-13.5 61q0 30 11.5 58.5t36.5 51t63.5 36t91.5 13.5q23 0 49.5 -1.5t61.5 -7.5z
" />
    <glyph glyph-name="uniFEFA" unicode="&#xfee0;&#xfe88;" horiz-adv-x="1585" arabic-form="final" 
d="M1363 329q0 -18 -1.5 -35.5t-3.5 -34.5q49 -20 105.5 -30t117.5 -10h8q28 0 44 -4t23.5 -13t9 -22.5t1.5 -32.5v-70q0 -26 -3 -41t-12 -23t-24 -10.5t-39 -2.5h-11q-100 0 -170.5 22.5t-124.5 59.5q-35 -38 -87.5 -60t-127.5 -22h-928v219h435v880h259v-880h145
q33 0 56.5 7t38 23.5t21.5 44.5t7 70v1076h261v-1111zM866 -274q-16 3 -41.5 6t-42.5 3q-32 0 -52 -13.5t-20 -47.5t29.5 -59.5t91.5 -25.5h58v-121h-372v121h98q-16 20 -29.5 49t-13.5 61q0 30 11.5 58.5t36.5 51t63.5 36t91.5 13.5q23 0 49.5 -1.5t61.5 -7.5z" />
    <glyph glyph-name="uniFEFB" unicode="&#xfedf;&#xfe8e;" horiz-adv-x="1485" arabic-form="isolated" 
d="M1355 1437v-1437h-1232v219h448v880h261v-880h263v1218h260z" />
    <glyph glyph-name="uniFEFC" unicode="&#xfee0;&#xfe8e;" horiz-adv-x="1585" arabic-form="final" 
d="M1363 329q0 -18 -1.5 -35.5t-3.5 -34.5q49 -20 105.5 -30t117.5 -10h8q28 0 44 -4t23.5 -13t9 -22.5t1.5 -32.5v-70q0 -26 -3 -41t-12 -23t-24 -10.5t-39 -2.5h-11q-100 0 -170.5 22.5t-124.5 59.5q-35 -38 -87.5 -60t-127.5 -22h-928v219h435v880h259v-880h145
q33 0 56.5 7t38 23.5t21.5 44.5t7 70v1076h261v-1111z" />
    <glyph glyph-name="uni06440671" unicode="&#xfedf;&#xfb51;" horiz-adv-x="1507" 
d="M1355 1437v-1437h-1232v219h448v880h261v-880h263v1218h260zM831 1333q0 40 -19.5 55t-41.5 15q-14 0 -30 -4t-31 -13.5t-27.5 -26.5t-19.5 -42h169v16zM462 1209v108h84v171h114v-33q26 27 59.5 39.5t71.5 12.5q35 0 63.5 -12.5t48.5 -35t30.5 -53.5t10.5 -68v-129h-482
z" />
    <glyph glyph-name="uni06440671.fina" unicode="&#xfee0;&#xfb51;" horiz-adv-x="1585" 
d="M1363 329q0 -18 -1.5 -35.5t-3.5 -34.5q49 -20 105.5 -30t117.5 -10h8q28 0 44 -4t23.5 -13t9 -22.5t1.5 -32.5v-70q0 -26 -3 -41t-12 -23t-24 -10.5t-39 -2.5h-11q-100 0 -170.5 22.5t-124.5 59.5q-35 -38 -87.5 -60t-127.5 -22h-928v219h435v880h259v-880h145
q33 0 56.5 7t38 23.5t21.5 44.5t7 70v1076h261v-1111zM831 1333q0 40 -19.5 55t-41.5 15q-14 0 -30 -4t-31 -13.5t-27.5 -26.5t-19.5 -42h169v16zM462 1209v108h84v171h114v-33q26 27 59.5 39.5t71.5 12.5q35 0 63.5 -12.5t48.5 -35t30.5 -53.5t10.5 -68v-129h-482z" />
    <glyph glyph-name="uni0621" unicode="&#x621;" horiz-adv-x="864" arabic-form="isolated" 
d="M742 503q-26 5 -49 9t-44.5 7t-44 4.5t-48.5 1.5q-28 0 -55 -8t-48 -24.5t-34 -42t-13 -60.5q0 -49 24 -83.5t62.5 -56t85.5 -31.5t94 -10h109v-209h-701v209h181q-98 94 -98 212q0 81 32 139.5t84.5 96.5t119 56t136.5 18q26 0 50.5 -0.5t51.5 -3t57 -6t67 -9.5z" />
    <glyph glyph-name="uni0622" unicode="&#x622;" horiz-adv-x="520" arabic-form="isolated" 
d="M130 1436h260v-1437h-260v1437zM-134 1678q31 34 58.5 55t53 32.5t50.5 15t52 3.5q21 0 47 -5.5t53.5 -14.5t55.5 -20.5t54 -23.5q0 -2 4 -2q45 -18 84 -31.5t62 -13.5q18 0 32 10t24.5 25.5t18.5 34t14 34.5l128 -59q-19 -45 -38 -80t-44.5 -59t-61.5 -36t-90 -12
q-23 0 -48 5t-51 13t-51.5 18t-47.5 20q-45 20 -90.5 36.5t-83.5 16.5q-10 0 -20 -2t-21.5 -8t-26 -18t-33.5 -33z" />
    <glyph glyph-name="uni0623" unicode="&#x623;" horiz-adv-x="520" arabic-form="isolated" 
d="M130 1436h260v-1437h-260v1437zM422 1844q-16 3 -41.5 6t-42.5 3q-32 0 -52 -13.5t-20 -47.5t29.5 -59.5t91.5 -25.5h58v-121h-372v121h98q-16 20 -29.5 49t-13.5 61q0 30 11.5 58.5t36.5 51t63.5 36t91.5 13.5q23 0 49.5 -1.5t61.5 -7.5z" />
    <glyph glyph-name="uni0624" unicode="&#x624;" horiz-adv-x="1114" arabic-form="isolated" 
d="M607 208q18 0 37.5 2t38 5t35 7t27.5 9v84q0 103 -16.5 167.5t-43 101t-60.5 49.5t-69 13q-38 0 -73 -16t-62 -45t-43 -69.5t-16 -89.5q0 -48 15 -88.5t45 -69t76 -44.5t109 -16zM264 -222q87 10 162.5 31.5t135.5 52t103 69t64 82.5q-38 -8 -80 -12t-71 -4
q-125 0 -212.5 37t-142.5 95.5t-80 130t-25 139.5q0 98 36.5 181.5t100.5 144t149.5 95t184.5 34.5q44 0 92 -8t94 -28.5t87.5 -55.5t73 -88.5t50 -127.5t18.5 -172v-170q0 -170 -54.5 -284.5t-152.5 -188t-234 -112t-299 -54.5l-24 213h24zM754 1358q-26 6 -56.5 11
t-53.5 5q-45 0 -69.5 -19t-24.5 -59q0 -19 8.5 -38.5t26.5 -36t45 -27t64 -10.5h89v-158h-511v158h121q-21 27 -35 66.5t-14 77.5q0 42 16.5 79t50 65.5t86 45t124.5 16.5q28 0 65 -2t93 -12z" />
    <glyph glyph-name="uni0625" unicode="&#x625;" horiz-adv-x="520" arabic-form="isolated" 
d="M130 1436h260v-1437h-260v1437zM406 -274q-16 3 -41.5 6t-42.5 3q-32 0 -52 -13.5t-20 -47.5t29.5 -59.5t91.5 -25.5h58v-121h-372v121h98q-16 20 -29.5 49t-13.5 61q0 30 11.5 58.5t36.5 51t63.5 36t91.5 13.5q23 0 49.5 -1.5t61.5 -7.5z" />
    <glyph glyph-name="uni0626" unicode="&#x626;" horiz-adv-x="1617" arabic-form="isolated" 
d="M1169 10q0 22 -10.5 44t-28 43t-39.5 40t-44 37q-36 28 -73.5 60.5t-67.5 70.5t-49.5 81t-19.5 92q0 93 40.5 158t103.5 105.5t139 59t147 18.5q51 0 99.5 -8t86.5 -18q45 -11 84 -25l-59 -225q-38 17 -76 31q-32 11 -70 21t-70 10q-26 0 -55 -6t-54 -19.5t-41.5 -36
t-16.5 -56.5q0 -20 12 -41.5t31 -42.5t42.5 -41.5t45.5 -38.5q34 -27 70.5 -59.5t66.5 -67.5t49.5 -72.5t19.5 -74.5q0 -56 -20.5 -114.5t-59.5 -112.5t-96 -102t-130.5 -84t-162 -56.5t-190.5 -20.5q-137 0 -243.5 25.5t-186 68t-135 98.5t-89.5 117.5t-49 125t-15 120.5
q0 112 39.5 220.5t104.5 194.5l210 -115q-49 -61 -72 -136t-23 -148q0 -72 26.5 -135.5t82.5 -110.5t142.5 -74t205.5 -27q81 0 153.5 17.5t126.5 48.5t86 72.5t32 88.5zM460 892q-26 6 -56.5 11t-53.5 5q-45 0 -69.5 -19t-24.5 -59q0 -19 8.5 -38.5t26.5 -36t45 -27
t64 -10.5h89v-158h-511v158h121q-21 27 -35 66.5t-14 77.5q0 42 16.5 79t50 65.5t86 45t124.5 16.5q28 0 65 -2t93 -12z" />
    <glyph glyph-name="uni0627" unicode="&#x627;" horiz-adv-x="520" arabic-form="isolated" 
d="M130 1436h260v-1437h-260v1437z" />
    <glyph glyph-name="uni0628" unicode="&#x628;" horiz-adv-x="1844" arabic-form="isolated" 
d="M1454 219v601h260v-820h-1153q-119 0 -207.5 14t-152 39.5t-104.5 61t-64.5 78.5t-33 92t-9.5 102q0 20 2 47t5.5 56.5t7.5 59.5t9 56l231 -20q-7 -38 -12.5 -76t-5.5 -76q0 -59 15.5 -99.5t59.5 -66.5t122.5 -37.5t204.5 -11.5h825zM740 -287q0 27 10 50t27.5 40.5
t40.5 27.5t50 10t50 -10t40.5 -27.5t27.5 -40.5t10 -50t-10 -50t-27.5 -40.5t-40.5 -27.5t-50 -10t-50 10t-40.5 27.5t-27.5 40.5t-10 50z" />
    <glyph glyph-name="uni0629" unicode="&#x629;" horiz-adv-x="933" arabic-form="isolated" 
d="M397 0q-97 0 -172.5 29.5t-127.5 80t-79.5 118.5t-27.5 145q0 84 19 155t51 127.5t75 99.5t91 72t98 43.5t98 14.5q75 0 150.5 -31.5t135.5 -95t97.5 -160t37.5 -225.5q0 -72 -28 -139.5t-79.5 -119.5t-125 -83t-163.5 -31h-50zM229 406q0 -95 50.5 -141t135.5 -46h21
q40 0 70 15t49.5 40.5t29 59.5t9.5 72q0 69 -16 121.5t-41.5 87.5t-56.5 53t-60 18q-36 0 -70 -17t-61 -52t-43.5 -87.5t-16.5 -123.5zM429 1196q0 27 10 50t27.5 40.5t40.5 27.5t50 10t50 -10t40.5 -27.5t27.5 -40.5t10 -50t-10 -50t-27.5 -40.5t-40.5 -27.5t-50 -10
t-50 10t-40.5 27.5t-27.5 40.5t-10 50zM129 1196q0 27 10 50t27.5 40.5t40.5 27.5t50 10t50 -10t40.5 -27.5t27.5 -40.5t10 -50t-10 -50t-27.5 -40.5t-40.5 -27.5t-50 -10t-50 10t-40.5 27.5t-27.5 40.5t-10 50z" />
    <glyph glyph-name="uni062A" unicode="&#x62a;" horiz-adv-x="1844" arabic-form="isolated" 
d="M1454 219v601h260v-820h-1153q-119 0 -207.5 14t-152 39.5t-104.5 61t-64.5 78.5t-33 92t-9.5 102q0 20 2 47t5.5 56.5t7.5 59.5t9 56l231 -20q-7 -38 -12.5 -76t-5.5 -76q0 -59 15.5 -99.5t59.5 -66.5t122.5 -37.5t204.5 -11.5h825zM925 1196q0 27 10 50t27.5 40.5
t40.5 27.5t50 10t50 -10t40.5 -27.5t27.5 -40.5t10 -50t-10 -50t-27.5 -40.5t-40.5 -27.5t-50 -10t-50 10t-40.5 27.5t-27.5 40.5t-10 50zM625 1196q0 27 10 50t27.5 40.5t40.5 27.5t50 10t50 -10t40.5 -27.5t27.5 -40.5t10 -50t-10 -50t-27.5 -40.5t-40.5 -27.5t-50 -10
t-50 10t-40.5 27.5t-27.5 40.5t-10 50z" />
    <glyph glyph-name="uni062B" unicode="&#x62b;" horiz-adv-x="1844" arabic-form="isolated" 
d="M1454 219v601h260v-820h-1153q-119 0 -207.5 14t-152 39.5t-104.5 61t-64.5 78.5t-33 92t-9.5 102q0 20 2 47t5.5 56.5t7.5 59.5t9 56l231 -20q-7 -38 -12.5 -76t-5.5 -76q0 -59 15.5 -99.5t59.5 -66.5t122.5 -37.5t204.5 -11.5h825zM882 1196q0 27 10 50t27.5 40.5
t40.5 27.5t50 10t50 -10t40.5 -27.5t27.5 -40.5t10 -50t-10 -50t-27.5 -40.5t-40.5 -27.5t-50 -10t-50 10t-40.5 27.5t-27.5 40.5t-10 50zM582 1196q0 27 10 50t27.5 40.5t40.5 27.5t50 10t50 -10t40.5 -27.5t27.5 -40.5t10 -50t-10 -50t-27.5 -40.5t-40.5 -27.5t-50 -10
t-50 10t-40.5 27.5t-27.5 40.5t-10 50zM733 1466q0 27 10 50t27.5 40.5t40.5 27.5t50 10t50 -10t40.5 -27.5t27.5 -40.5t10 -50t-10 -50t-27.5 -40.5t-40.5 -27.5t-50 -10t-50 10t-40.5 27.5t-27.5 40.5t-10 50z" />
    <glyph glyph-name="uni062C" unicode="&#x62c;" horiz-adv-x="1135" arabic-form="isolated" 
d="M727 219q-28 55 -42 137q-9 57 -20 113t-33.5 100.5t-60.5 72t-102 27.5q-41 0 -108 -11t-139 -40v206q70 20 140.5 36t157.5 16q85 0 153 -26.5t117 -73t79 -109.5t40 -135q8 -59 18 -115.5t26 -100.5t40.5 -70.5t61.5 -26.5v-219h-542q-63 0 -114 -17t-87.5 -51
t-56.5 -86t-20 -121q0 -54 17.5 -103t55 -86t95 -59t137.5 -22q47 0 110.5 9t125.5 22v-203q-37 -9 -68 -16t-60.5 -11.5t-58.5 -7t-63 -2.5q-97 0 -175 19t-137.5 52.5t-102 78t-69.5 95.5t-39.5 106t-12.5 109q0 124 38.5 219.5t109.5 160.5t170 99t221 34h198z
M521.765 -257.15q0 24.1914 9.01953 44.7988q9.01953 20.6084 24.8047 36.2881q15.7842 15.6807 36.5303 24.6396q20.7451 8.96094 45.0986 8.96094t45.0986 -8.96094q20.7451 -8.95898 36.5303 -24.6396q15.7842 -15.6797 24.8037 -36.2881
q9.02051 -20.6074 9.02051 -44.7988q0 -24.1924 -9.02051 -44.8008q-9.01953 -20.6074 -24.8037 -36.2871q-15.7852 -15.6797 -36.5303 -24.6406q-20.7451 -8.95898 -45.0986 -8.95898t-45.0986 8.95898q-20.7461 8.96094 -36.5303 24.6406
q-15.7852 15.6797 -24.8047 36.2871q-9.01953 20.6084 -9.01953 44.8008z" />
    <glyph glyph-name="uni062D" unicode="&#x62d;" horiz-adv-x="1135" arabic-form="isolated" 
d="M727 219q-28 55 -42 137q-9 57 -20 113t-33.5 100.5t-60.5 72t-102 27.5q-41 0 -108 -11t-139 -40v206q70 20 140.5 36t157.5 16q85 0 153 -26.5t117 -73t79 -109.5t40 -135q8 -59 18 -115.5t26 -100.5t40.5 -70.5t61.5 -26.5v-219h-542q-63 0 -114 -17t-87.5 -51
t-56.5 -86t-20 -121q0 -54 17.5 -103t55 -86t95 -59t137.5 -22q47 0 110.5 9t125.5 22v-203q-37 -9 -68 -16t-60.5 -11.5t-58.5 -7t-63 -2.5q-97 0 -175 19t-137.5 52.5t-102 78t-69.5 95.5t-39.5 106t-12.5 109q0 124 38.5 219.5t109.5 160.5t170 99t221 34h198z" />
    <glyph glyph-name="uni062E" unicode="&#x62e;" horiz-adv-x="1135" arabic-form="isolated" 
d="M727 219q-28 55 -42 137q-9 57 -20 113t-33.5 100.5t-60.5 72t-102 27.5q-41 0 -108 -11t-139 -40v206q70 20 140.5 36t157.5 16q85 0 153 -26.5t117 -73t79 -109.5t40 -135q8 -59 18 -115.5t26 -100.5t40.5 -70.5t61.5 -26.5v-219h-542q-63 0 -114 -17t-87.5 -51
t-56.5 -86t-20 -121q0 -54 17.5 -103t55 -86t95 -59t137.5 -22q47 0 110.5 9t125.5 22v-203q-37 -9 -68 -16t-60.5 -11.5t-58.5 -7t-63 -2.5q-97 0 -175 19t-137.5 52.5t-102 78t-69.5 95.5t-39.5 106t-12.5 109q0 124 38.5 219.5t109.5 160.5t170 99t221 34h198zM369 1196
q0 27 10 50t27.5 40.5t40.5 27.5t50 10t50 -10t40.5 -27.5t27.5 -40.5t10 -50t-10 -50t-27.5 -40.5t-40.5 -27.5t-50 -10t-50 10t-40.5 27.5t-27.5 40.5t-10 50z" />
    <glyph glyph-name="uni062F" unicode="&#x62f;" horiz-adv-x="956" arabic-form="isolated" 
d="M39 0v219h384q60 0 97.5 9t57.5 25.5t27 39.5t7 50q0 48 -29 104t-76.5 113.5t-107 114t-120.5 105.5l188 184q195 -161 297 -313.5t102 -289.5q0 -73 -23.5 -138.5t-77 -115t-139 -78.5t-208.5 -29h-379z" />
    <glyph glyph-name="uni0630" unicode="&#x630;" horiz-adv-x="946" arabic-form="isolated" 
d="M39 0v219h384q60 0 97.5 9t57.5 25.5t27 39.5t7 50q0 48 -29 104t-76.5 113.5t-107 114t-120.5 105.5l188 184q195 -161 297 -313.5t102 -289.5q0 -73 -23.5 -138.5t-77 -115t-139 -78.5t-208.5 -29h-379zM315 1196q0 27 10 50t27.5 40.5t40.5 27.5t50 10t50 -10
t40.5 -27.5t27.5 -40.5t10 -50t-10 -50t-27.5 -40.5t-40.5 -27.5t-50 -10t-50 10t-40.5 27.5t-27.5 40.5t-10 50z" />
    <glyph glyph-name="uni0631" unicode="&#x631;" horiz-adv-x="659" arabic-form="isolated" 
d="M-7 -191q87 17 141 43t84 64.5t40.5 91t10.5 122.5v690h260v-638q0 -145 -28 -248.5t-89 -173.5t-156.5 -111t-230.5 -62z" />
    <glyph glyph-name="uni0632" unicode="&#x632;" horiz-adv-x="666" arabic-form="isolated" 
d="M-7 -191q87 17 141 43t84 64.5t40.5 91t10.5 122.5v690h260v-638q0 -145 -28 -248.5t-89 -173.5t-156.5 -111t-230.5 -62zM270 1196q0 27 10 50t27.5 40.5t40.5 27.5t50 10t50 -10t40.5 -27.5t27.5 -40.5t10 -50t-10 -50t-27.5 -40.5t-40.5 -27.5t-50 -10t-50 10
t-40.5 27.5t-27.5 40.5t-10 50z" />
    <glyph glyph-name="uni0633" unicode="&#x633;" horiz-adv-x="2550" arabic-form="isolated" 
d="M1444 219q33 0 56.5 7t38 23.5t21.5 44.5t7 70v347h261v-382q0 -13 -0.5 -25.5t-1.5 -24.5q52 -29 114.5 -44.5t143.5 -15.5h74v601h262v-820h-319q-110 0 -194 28t-144 73q-34 -46 -89.5 -73.5t-140.5 -27.5h-44q-74 0 -137 16t-115 44q-20 -110 -70.5 -201.5
t-129 -156.5t-184 -101t-235.5 -36q-162 0 -280.5 45.5t-196 122t-114.5 176.5t-37 210q0 51 10 106.5t28 111t42.5 108t52.5 96.5l208 -116q-17 -27 -30.5 -60.5t-22.5 -70.5t-14 -76t-5 -75q0 -75 26 -140t73 -113t113 -75t147 -27q190 0 281 107t91 304q0 28 -5.5 69.5
t-16 89t-25.5 97.5t-35 95l253 72q12 -35 24.5 -77t24 -87.5t20.5 -92.5t14 -91q104 -55 200 -55z" />
    <glyph glyph-name="uni0634" unicode="&#x634;" horiz-adv-x="2550" arabic-form="isolated" 
d="M1444 219q33 0 56.5 7t38 23.5t21.5 44.5t7 70v347h261v-382q0 -13 -0.5 -25.5t-1.5 -24.5q52 -29 114.5 -44.5t143.5 -15.5h74v601h262v-820h-319q-110 0 -194 28t-144 73q-34 -46 -89.5 -73.5t-140.5 -27.5h-44q-74 0 -137 16t-115 44q-20 -110 -70.5 -201.5
t-129 -156.5t-184 -101t-235.5 -36q-162 0 -280.5 45.5t-196 122t-114.5 176.5t-37 210q0 51 10 106.5t28 111t42.5 108t52.5 96.5l208 -116q-17 -27 -30.5 -60.5t-22.5 -70.5t-14 -76t-5 -75q0 -75 26 -140t73 -113t113 -75t147 -27q190 0 281 107t91 304q0 28 -5.5 69.5
t-16 89t-25.5 97.5t-35 95l253 72q12 -35 24.5 -77t24 -87.5t20.5 -92.5t14 -91q104 -55 200 -55zM1727 1196q0 27 10 50t27.5 40.5t40.5 27.5t50 10t50 -10t40.5 -27.5t27.5 -40.5t10 -50t-10 -50t-27.5 -40.5t-40.5 -27.5t-50 -10t-50 10t-40.5 27.5t-27.5 40.5t-10 50z
M1427 1196q0 27 10 50t27.5 40.5t40.5 27.5t50 10t50 -10t40.5 -27.5t27.5 -40.5t10 -50t-10 -50t-27.5 -40.5t-40.5 -27.5t-50 -10t-50 10t-40.5 27.5t-27.5 40.5t-10 50zM1578 1466q0 27 10 50t27.5 40.5t40.5 27.5t50 10t50 -10t40.5 -27.5t27.5 -40.5t10 -50t-10 -50
t-27.5 -40.5t-40.5 -27.5t-50 -10t-50 10t-40.5 27.5t-27.5 40.5t-10 50z" />
    <glyph glyph-name="uni0635" unicode="&#x635;" horiz-adv-x="2774" arabic-form="isolated" 
d="M990 199q0 28 -5.5 69.5t-16 89t-25.5 97.5t-35 95l253 72q13 -36 26 -80.5t25 -92t21 -96t13 -93.5q50 -23 104.5 -31t103.5 -10q24 63 61.5 137.5t88 149.5t114.5 145t140 124t165 86.5t190 32.5q117 0 202 -40t140.5 -110t82 -165t26.5 -205v-374h-1108
q-99 0 -178.5 12.5t-141.5 40.5q-20 -109 -71 -198.5t-129.5 -154t-183.5 -100t-234 -35.5q-162 0 -280.5 45.5t-196 122t-114.5 176.5t-37 210q0 51 10 106.5t28 111t42.5 108t52.5 96.5l208 -116q-17 -27 -30.5 -60.5t-22.5 -70.5t-14 -76t-5 -75q0 -75 26 -140t73 -113
t113 -75t147 -27q190 0 281 107t91 304zM2407 353q0 93 -19 156t-51 100.5t-76 53.5t-93 16q-67 0 -135.5 -37t-130 -100t-112.5 -146.5t-84 -176.5h701v134z" />
    <glyph glyph-name="uni0636" unicode="&#x636;" horiz-adv-x="2774" arabic-form="isolated" 
d="M990 199q0 28 -5.5 69.5t-16 89t-25.5 97.5t-35 95l253 72q13 -36 26 -80.5t25 -92t21 -96t13 -93.5q50 -23 104.5 -31t103.5 -10q24 63 61.5 137.5t88 149.5t114.5 145t140 124t165 86.5t190 32.5q117 0 202 -40t140.5 -110t82 -165t26.5 -205v-374h-1108
q-99 0 -178.5 12.5t-141.5 40.5q-20 -109 -71 -198.5t-129.5 -154t-183.5 -100t-234 -35.5q-162 0 -280.5 45.5t-196 122t-114.5 176.5t-37 210q0 51 10 106.5t28 111t42.5 108t52.5 96.5l208 -116q-17 -27 -30.5 -60.5t-22.5 -70.5t-14 -76t-5 -75q0 -75 26 -140t73 -113
t113 -75t147 -27q190 0 281 107t91 304zM2407 353q0 93 -19 156t-51 100.5t-76 53.5t-93 16q-67 0 -135.5 -37t-130 -100t-112.5 -146.5t-84 -176.5h701v134zM1818 1196q0 27 10 50t27.5 40.5t40.5 27.5t50 10t50 -10t40.5 -27.5t27.5 -40.5t10 -50t-10 -50t-27.5 -40.5
t-40.5 -27.5t-50 -10t-50 10t-40.5 27.5t-27.5 40.5t-10 50z" />
    <glyph glyph-name="uni0637" unicode="&#x637;" horiz-adv-x="1572" arabic-form="isolated" 
d="M-10 0v219h261q16 41 37.5 87t48.5 95v1036h260v-709q86 74 189.5 120t226.5 46q115 0 199.5 -40t140 -110t82.5 -165t27 -205v-374h-1472zM1205 353q0 93 -19 156t-51 100.5t-76 53.5t-93 16q-67 0 -135.5 -37t-130 -100t-112.5 -146.5t-84 -176.5h701v134z" />
    <glyph glyph-name="uni0638" unicode="&#x638;" horiz-adv-x="1572" arabic-form="isolated" 
d="M-10 0v219h261q16 41 37.5 87t48.5 95v1036h260v-709q86 74 189.5 120t226.5 46q115 0 199.5 -40t140 -110t82.5 -165t27 -205v-374h-1472zM1205 353q0 93 -19 156t-51 100.5t-76 53.5t-93 16q-67 0 -135.5 -37t-130 -100t-112.5 -146.5t-84 -176.5h701v134zM869 1196
q0 27 10 50t27.5 40.5t40.5 27.5t50 10t50 -10t40.5 -27.5t27.5 -40.5t10 -50t-10 -50t-27.5 -40.5t-40.5 -27.5t-50 -10t-50 10t-40.5 27.5t-27.5 40.5t-10 50z" />
    <glyph glyph-name="uni0639" unicode="&#x639;" horiz-adv-x="1043" arabic-form="isolated" 
d="M-10 -294q0 88 21 161t59.5 131t92.5 102t120 74q-48 71 -64 136.5t-16 117.5q0 89 32.5 169t91 140t139.5 95t179 35q23 0 55 -2.5t65.5 -7t65 -11t52.5 -14.5l-25 -227q-63 19 -115.5 28.5t-97.5 9.5q-32 0 -66.5 -9t-63 -30.5t-47 -58.5t-18.5 -93q0 -51 16.5 -93.5
t46.5 -73.5t72 -48.5t93 -17.5h285v-219h-462q-58 0 -106.5 -18.5t-84 -54t-55 -86.5t-19.5 -116q0 -50 17 -98.5t53.5 -86.5t94 -61.5t139.5 -23.5q47 0 110.5 9t126.5 22v-203q-37 -9 -68 -16t-59.5 -11.5t-56.5 -7t-59 -2.5q-142 0 -244.5 39.5t-169 104t-98.5 147.5
t-32 169z" />
    <glyph glyph-name="uni063A" unicode="&#x63a;" horiz-adv-x="1043" arabic-form="isolated" 
d="M-10 -294q0 88 21 161t59.5 131t92.5 102t120 74q-48 71 -64 136.5t-16 117.5q0 89 32.5 169t91 140t139.5 95t179 35q23 0 55 -2.5t65.5 -7t65 -11t52.5 -14.5l-25 -227q-63 19 -115.5 28.5t-97.5 9.5q-32 0 -66.5 -9t-63 -30.5t-47 -58.5t-18.5 -93q0 -51 16.5 -93.5
t46.5 -73.5t72 -48.5t93 -17.5h285v-219h-462q-58 0 -106.5 -18.5t-84 -54t-55 -86.5t-19.5 -116q0 -50 17 -98.5t53.5 -86.5t94 -61.5t139.5 -23.5q47 0 110.5 9t126.5 22v-203q-37 -9 -68 -16t-59.5 -11.5t-56.5 -7t-59 -2.5q-142 0 -244.5 39.5t-169 104t-98.5 147.5
t-32 169zM485 1196q0 27 10 50t27.5 40.5t40.5 27.5t50 10t50 -10t40.5 -27.5t27.5 -40.5t10 -50t-10 -50t-27.5 -40.5t-40.5 -27.5t-50 -10t-50 10t-40.5 27.5t-27.5 40.5t-10 50z" />
    <glyph glyph-name="uni0641" unicode="&#x641;" horiz-adv-x="2121" arabic-form="isolated" 
d="M1752 219v172q0 73 -14.5 122t-39 78.5t-56.5 42t-66 12.5q-38 0 -71.5 -16t-58.5 -44.5t-39.5 -68t-14.5 -87.5q0 -47 16 -86t46 -67t72.5 -43t95.5 -15h130zM561 0q-119 0 -207.5 14t-152 39.5t-104.5 61t-64.5 78.5t-33 92t-9.5 102q0 20 2 47t5.5 56.5t7.5 59.5t9 56
l231 -20q-7 -38 -12.5 -76t-5.5 -76q0 -59 15.5 -99.5t59.5 -66.5t122.5 -37.5t204.5 -11.5h570q-9 19 -19 44.5t-18 53.5t-13 56t-5 53q0 88 34.5 167t95 138t144 93.5t181.5 34.5q97 0 173.5 -29t129.5 -84t81 -134.5t28 -179.5v-432h-1450zM1504 1196q0 27 10 50
t27.5 40.5t40.5 27.5t50 10t50 -10t40.5 -27.5t27.5 -40.5t10 -50t-10 -50t-27.5 -40.5t-40.5 -27.5t-50 -10t-50 10t-40.5 27.5t-27.5 40.5t-10 50z" />
    <glyph glyph-name="uni0642" unicode="&#x642;" horiz-adv-x="1502" arabic-form="isolated" 
d="M995 215q18 0 37.5 2t38 5t35 7t27.5 9v77q0 103 -16.5 167.5t-43 101t-60.5 49.5t-69 13q-38 0 -71.5 -16t-58 -45t-39 -69.5t-14.5 -89.5q0 -42 13 -80.5t41.5 -67.5t73 -46t106.5 -17zM1133 18q-44 -13 -88.5 -17t-78.5 -4q-126 0 -213.5 37.5t-142.5 97t-80 134
t-25 148.5q0 92 33 172.5t94.5 140t149 93.5t195.5 34q44 0 92 -8t94 -28.5t87.5 -55.5t73 -88.5t50 -127.5t18.5 -172v-292q0 -172 -56 -303t-154.5 -219t-232.5 -132.5t-290 -44.5q-165 0 -290.5 41t-209.5 114.5t-126.5 175.5t-42.5 224q0 51 10 106.5t28 111t42.5 108
t53.5 97.5l207 -118q-17 -26 -30.5 -59.5t-22.5 -71t-14 -76t-5 -75.5q0 -79 26 -145.5t78 -114.5t129.5 -75t180.5 -27q97 0 181.5 25.5t146 77.5t97 130.5t35.5 185.5zM963 1196q0 27 10 50t27.5 40.5t40.5 27.5t50 10t50 -10t40.5 -27.5t27.5 -40.5t10 -50t-10 -50
t-27.5 -40.5t-40.5 -27.5t-50 -10t-50 10t-40.5 27.5t-27.5 40.5t-10 50zM663 1196q0 27 10 50t27.5 40.5t40.5 27.5t50 10t50 -10t40.5 -27.5t27.5 -40.5t10 -50t-10 -50t-27.5 -40.5t-40.5 -27.5t-50 -10t-50 10t-40.5 27.5t-27.5 40.5t-10 50z" />
    <glyph glyph-name="uni0643" unicode="&#x643;" horiz-adv-x="1844" arabic-form="isolated" 
d="M1008 805q-20 5 -44 8.5t-41 3.5q-35 0 -53.5 -14.5t-18.5 -45.5q0 -14 6.5 -29.5t20.5 -28t34.5 -20.5t49.5 -8h68v-121h-392v121h93q-17 21 -27.5 51.5t-10.5 59.5q0 32 12.5 60.5t38.5 50.5t66 34.5t96 12.5q21 0 49.5 -1.5t71.5 -9.5zM1454 219v1218h260v-1437h-1153
q-119 0 -207.5 14t-152 39.5t-104.5 61t-64.5 78.5t-33 92t-9.5 102q0 20 2 47t5.5 56.5t7.5 59.5t9 56l231 -20q-7 -38 -12.5 -76t-5.5 -76q0 -59 15.5 -99.5t59.5 -66.5t122.5 -37.5t204.5 -11.5h825z" />
    <glyph glyph-name="uni0644" unicode="&#x644;" horiz-adv-x="1379" arabic-form="isolated" 
d="M990 1437h259v-1238q0 -138 -42.5 -254.5t-123.5 -201t-197.5 -131.5t-264.5 -47q-161 0 -279.5 45.5t-196.5 122t-116.5 176.5t-38.5 210q0 51 10 106.5t28 111t42 108t53 96.5l209 -116q-17 -27 -30.5 -60.5t-23 -71t-14.5 -76t-5 -74.5q0 -75 25.5 -141t74.5 -115
t121.5 -77.5t166.5 -28.5q85 0 149 28.5t107 82.5t65 131.5t22 175.5v1238z" />
    <glyph glyph-name="uni0645" unicode="&#x645;" horiz-adv-x="1347" arabic-form="isolated" 
d="M827 -11q-59 0 -113.5 12t-101.5 30.5t-85.5 41.5t-66.5 46q-38 -6 -76.5 -22.5t-69 -48t-49.5 -81.5t-19 -124q0 -51 7.5 -113t22.5 -132t38 -145.5t53 -152.5l-242 -80q-26 74 -50.5 160t-43 169.5t-30 158t-11.5 125.5q0 82 16.5 147t43.5 115.5t63 88t74 65t76.5 47
t71.5 33.5q30 107 69 186t82 135.5t88.5 92.5t89.5 56.5t85.5 28.5t75.5 8q77 0 139 -20.5t110 -54.5t82.5 -78.5t57 -93t33 -97.5t10.5 -92q0 -77 -25 -151t-77.5 -131.5t-134 -93t-193.5 -35.5zM1016 393q0 33 -12.5 73.5t-37.5 76t-62.5 59.5t-87.5 24t-92 -28.5
t-75.5 -76t-57.5 -109t-37 -126.5q13 -13 41 -26.5t62.5 -25t72 -18.5t70.5 -7q49 0 89 7.5t68.5 27.5t43.5 56t15 93z" />
    <glyph glyph-name="uni0646" unicode="&#x646;" horiz-adv-x="1339" arabic-form="isolated" 
d="M990 199q0 28 -5.5 69.5t-16 89t-25.5 97.5t-35 95l253 72q15 -43 30.5 -96t28.5 -109.5t21 -113t8 -104.5q0 -138 -42.5 -254.5t-123.5 -201t-198.5 -131.5t-266.5 -47q-162 0 -280.5 45.5t-196 122t-114.5 176.5t-37 210q0 51 10 106.5t28 111t42.5 108t52.5 96.5
l208 -116q-17 -27 -30.5 -60.5t-22.5 -70.5t-14 -76t-5 -75q0 -75 26 -140t73 -113t113 -75t147 -27q190 0 281 107t91 304zM496 968q0 27 10 50t27.5 40.5t40.5 27.5t50 10t50 -10t40.5 -27.5t27.5 -40.5t10 -50t-10 -50t-27.5 -40.5t-40.5 -27.5t-50 -10t-50 10
t-40.5 27.5t-27.5 40.5t-10 50z" />
    <glyph glyph-name="uni0648" unicode="&#x648;" horiz-adv-x="1114" arabic-form="isolated" 
d="M607 208q18 0 37.5 2t38 5t35 7t27.5 9v84q0 103 -16.5 167.5t-43 101t-60.5 49.5t-69 13q-38 0 -73 -16t-62 -45t-43 -69.5t-16 -89.5q0 -48 15 -88.5t45 -69t76 -44.5t109 -16zM264 -222q87 10 162.5 31.5t135.5 52t103 69t64 82.5q-38 -8 -80 -12t-71 -4
q-125 0 -212.5 37t-142.5 95.5t-80 130t-25 139.5q0 98 36.5 181.5t100.5 144t149.5 95t184.5 34.5q44 0 92 -8t94 -28.5t87.5 -55.5t73 -88.5t50 -127.5t18.5 -172v-170q0 -170 -54.5 -284.5t-152.5 -188t-234 -112t-299 -54.5l-24 213h24z" />
    <glyph glyph-name="uni0649" unicode="&#x649;" horiz-adv-x="1552" arabic-form="isolated" 
d="M1104 10q0 22 -10.5 44t-28 43t-39.5 40t-44 37q-36 28 -73.5 60.5t-67.5 70.5t-49.5 81t-19.5 92q0 93 40.5 158t103.5 105.5t139 59t147 18.5q51 0 99.5 -8t86.5 -18q45 -11 84 -25l-59 -225q-38 17 -76 31q-32 11 -70 21t-70 10q-26 0 -55 -6t-54 -19.5t-41.5 -36
t-16.5 -56.5q0 -20 12 -41.5t31 -42.5t42.5 -41.5t45.5 -38.5q34 -27 70.5 -59.5t66.5 -67.5t49.5 -72.5t19.5 -74.5q0 -56 -20.5 -114.5t-59.5 -112.5t-96 -102t-130.5 -84t-162 -56.5t-190.5 -20.5q-137 0 -243.5 25.5t-186 68t-135 98.5t-89.5 117.5t-49 125t-15 120.5
q0 112 39.5 220.5t104.5 194.5l210 -115q-49 -61 -72 -136t-23 -148q0 -72 26.5 -135.5t82.5 -110.5t142.5 -74t205.5 -27q81 0 153.5 17.5t126.5 48.5t86 72.5t32 88.5z" />
    <glyph glyph-name="uni064A" unicode="&#x64a;" horiz-adv-x="1552" arabic-form="isolated" 
d="M1104 10q0 22 -10.5 44t-28 43t-39.5 40t-44 37q-36 28 -73.5 60.5t-67.5 70.5t-49.5 81t-19.5 92q0 93 40.5 158t103.5 105.5t139 59t147 18.5q51 0 99.5 -8t86.5 -18q45 -11 84 -25l-59 -225q-38 17 -76 31q-32 11 -70 21t-70 10q-26 0 -55 -6t-54 -19.5t-41.5 -36
t-16.5 -56.5q0 -20 12 -41.5t31 -42.5t42.5 -41.5t45.5 -38.5q34 -27 70.5 -59.5t66.5 -67.5t49.5 -72.5t19.5 -74.5q0 -56 -20.5 -114.5t-59.5 -112.5t-96 -102t-130.5 -84t-162 -56.5t-190.5 -20.5q-137 0 -243.5 25.5t-186 68t-135 98.5t-89.5 117.5t-49 125t-15 120.5
q0 112 39.5 220.5t104.5 194.5l210 -115q-49 -61 -72 -136t-23 -148q0 -72 26.5 -135.5t82.5 -110.5t142.5 -74t205.5 -27q81 0 153.5 17.5t126.5 48.5t86 72.5t32 88.5zM719 -679q0 27 10 50t27.5 40.5t40.5 27.5t50 10t50 -10t40.5 -27.5t27.5 -40.5t10 -50t-10 -50
t-27.5 -40.5t-40.5 -27.5t-50 -10t-50 10t-40.5 27.5t-27.5 40.5t-10 50zM419 -679q0 27 10 50t27.5 40.5t40.5 27.5t50 10t50 -10t40.5 -27.5t27.5 -40.5t10 -50t-10 -50t-27.5 -40.5t-40.5 -27.5t-50 -10t-50 10t-40.5 27.5t-27.5 40.5t-10 50z" />
    <glyph glyph-name="uni0671" unicode="&#x671;" horiz-adv-x="520" arabic-form="isolated" 
d="M130 1436h260v-1437h-260v1437zM383 1698q0 40 -19.5 55t-41.5 15q-14 0 -30 -4t-31 -13.5t-27.5 -26.5t-19.5 -42h169v16zM14 1574v108h84v171h114v-33q26 27 59.5 39.5t71.5 12.5q35 0 63.5 -12.5t48.5 -35t30.5 -53.5t10.5 -68v-129h-482z" />
    <glyph glyph-name="uni0679" unicode="&#x679;" horiz-adv-x="1844" arabic-form="isolated" 
d="M1454 219v601h260v-820h-1153q-119 0 -207.5 14t-152 39.5t-104.5 61t-64.5 78.5t-33 92t-9.5 102q0 20 2 47t5.5 56.5t7.5 59.5t9 56l231 -20q-7 -38 -12.5 -76t-5.5 -76q0 -59 15.5 -99.5t59.5 -66.5t122.5 -37.5t204.5 -11.5h825zM603 991h82v437h123v-274
q13 17 33 30t42.5 22t44.5 14t40 5q48 0 81 -15.5t54 -43t30.5 -65t9.5 -80.5v-147h-540v117zM1025 1019q0 55 -19.5 76t-51.5 21q-19 0 -40 -9.5t-41 -26.5t-36 -39.5t-24 -49.5h212v28z" />
    <glyph glyph-name="uni067E" unicode="&#x67e;" horiz-adv-x="1844" arabic-form="isolated" 
d="M1454 219v601h260v-820h-1153q-119 0 -207.5 14t-152 39.5t-104.5 61t-64.5 78.5t-33 92t-9.5 102q0 20 2 47t5.5 56.5t7.5 59.5t9 56l231 -20q-7 -38 -12.5 -76t-5.5 -76q0 -59 15.5 -99.5t59.5 -66.5t122.5 -37.5t204.5 -11.5h825zM911 -287q0 27 10 50t27.5 40.5
t40.5 27.5t50 10t50 -10t40.5 -27.5t27.5 -40.5t10 -50t-10 -50t-27.5 -40.5t-40.5 -27.5t-50 -10t-50 10t-40.5 27.5t-27.5 40.5t-10 50zM611 -287q0 27 10 50t27.5 40.5t40.5 27.5t50 10t50 -10t40.5 -27.5t27.5 -40.5t10 -50t-10 -50t-27.5 -40.5t-40.5 -27.5t-50 -10
t-50 10t-40.5 27.5t-27.5 40.5t-10 50zM759 -574q0 27 10 50t27.5 40.5t40.5 27.5t50 10t50 -10t40.5 -27.5t27.5 -40.5t10 -50t-10 -50t-27.5 -40.5t-40.5 -27.5t-50 -10t-50 10t-40.5 27.5t-27.5 40.5t-10 50z" />
    <glyph glyph-name="uni0686" unicode="&#x686;" horiz-adv-x="1135" arabic-form="isolated" 
d="M625.597 -166.597q0 21.5996 8 40q8 18.3994 22 32.3994q13.999 13.999 32.3994 21.999q18.3994 8 39.999 8t39.999 -8q18.4004 -8 32.3994 -21.999q14 -14 22 -32.3994q8 -18.4004 8 -40t-8 -39.999q-8 -18.4004 -22 -32.3994q-13.999 -14 -32.3994 -22
q-18.3994 -8 -39.999 -8t-39.999 8q-18.4004 8 -32.3994 22q-14 13.999 -22 32.3994q-8 18.3994 -8 39.999zM385.601 -166.597q0 21.5996 8 40q7.99902 18.3994 21.999 32.3994q14 13.999 32.3994 21.999q18.4004 8 40 8t39.999 -8t32.3994 -21.999q14 -14 22 -32.3994
q8 -18.4004 8 -40t-8 -39.999q-8 -18.4004 -22 -32.3994q-14 -14 -32.3994 -22t-39.999 -8t-40 8q-18.3994 8 -32.3994 22q-14 13.999 -21.999 32.3994q-8 18.3994 -8 39.999zM503.998 -396.193q0 21.5996 8 40q8 18.3994 22 32.3994t32.3994 21.999q18.3994 8 39.999 8
q21.6006 0 40 -8q18.3994 -7.99902 32.3994 -21.999t22 -32.3994q7.99902 -18.4004 7.99902 -40t-7.99902 -39.999q-8 -18.3994 -22 -32.3994t-32.3994 -22t-40 -8q-21.5996 0 -39.999 8t-32.3994 22t-22 32.3994t-8 39.999zM727 219q-28 55 -42 137q-9 57 -20 113
t-33.5 100.5t-60.5 72t-102 27.5q-41 0 -108 -11t-139 -40v206q70 20 140.5 36t157.5 16q85 0 153 -26.5t117 -73t79 -109.5t40 -135q8 -59 18 -115.5t26 -100.5t40.5 -70.5t61.5 -26.5v-219h-542q-63 0 -114 -17t-87.5 -51t-56.5 -86t-20 -121q0 -54 17.5 -103t55 -86
t95 -59t137.5 -22q47 0 110.5 9t125.5 22v-203q-37 -9 -68 -16t-60.5 -11.5t-58.5 -7t-63 -2.5q-97 0 -175 19t-137.5 52.5t-102 78t-69.5 95.5t-39.5 106t-12.5 109q0 124 38.5 219.5t109.5 160.5t170 99t221 34h198z" />
    <glyph glyph-name="uni0688" unicode="&#x688;" horiz-adv-x="946" arabic-form="isolated" 
d="M39 0v219h384q60 0 97.5 9t57.5 25.5t27 39.5t7 50q0 48 -29 104t-76.5 113.5t-107 114t-120.5 105.5l188 184q195 -161 297 -313.5t102 -289.5q0 -73 -23.5 -138.5t-77 -115t-139 -78.5t-208.5 -29h-379zM157 1158h82v437h123v-274q13 17 33 30t42.5 22t44.5 14t40 5
q48 0 81 -15.5t54 -43t30.5 -65t9.5 -80.5v-147h-540v117zM579 1186q0 55 -19.5 76t-51.5 21q-19 0 -40 -9.5t-41 -26.5t-36 -39.5t-24 -49.5h212v28z" />
    <glyph glyph-name="uni0691" unicode="&#x691;" horiz-adv-x="659" arabic-form="isolated" 
d="M-7 -191q87 17 141 43t84 64.5t40.5 91t10.5 122.5v690h260v-638q0 -145 -28 -248.5t-89 -173.5t-156.5 -111t-230.5 -62zM72 1173h82v437h123v-274q13 17 33 30t42.5 22t44.5 14t40 5q48 0 81 -15.5t54 -43t30.5 -65t9.5 -80.5v-147h-540v117zM494 1201q0 55 -19.5 76
t-51.5 21q-19 0 -40 -9.5t-41 -26.5t-36 -39.5t-24 -49.5h212v28z" />
    <glyph glyph-name="uni0698" unicode="&#x698;" horiz-adv-x="659" arabic-form="isolated" 
d="M-7 -191q87 17 141 43t84 64.5t40.5 91t10.5 122.5v690h260v-638q0 -145 -28 -248.5t-89 -173.5t-156.5 -111t-230.5 -62zM425 1196q0 27 10 50t27.5 40.5t40.5 27.5t50 10t50 -10t40.5 -27.5t27.5 -40.5t10 -50t-10 -50t-27.5 -40.5t-40.5 -27.5t-50 -10t-50 10
t-40.5 27.5t-27.5 40.5t-10 50zM125 1196q0 27 10 50t27.5 40.5t40.5 27.5t50 10t50 -10t40.5 -27.5t27.5 -40.5t10 -50t-10 -50t-27.5 -40.5t-40.5 -27.5t-50 -10t-50 10t-40.5 27.5t-27.5 40.5t-10 50zM276 1466q0 27 10 50t27.5 40.5t40.5 27.5t50 10t50 -10t40.5 -27.5
t27.5 -40.5t10 -50t-10 -50t-27.5 -40.5t-40.5 -27.5t-50 -10t-50 10t-40.5 27.5t-27.5 40.5t-10 50z" />
    <glyph glyph-name="uni06A4" unicode="&#x6a4;" horiz-adv-x="2121" arabic-form="isolated" 
d="M1752 219v172q0 73 -14.5 122t-39 78.5t-56.5 42t-66 12.5q-38 0 -71.5 -16t-58.5 -44.5t-39.5 -68t-14.5 -87.5q0 -47 16 -86t46 -67t72.5 -43t95.5 -15h130zM561 0q-119 0 -207.5 14t-152 39.5t-104.5 61t-64.5 78.5t-33 92t-9.5 102q0 20 2 47t5.5 56.5t7.5 59.5t9 56
l231 -20q-7 -38 -12.5 -76t-5.5 -76q0 -59 15.5 -99.5t59.5 -66.5t122.5 -37.5t204.5 -11.5h570q-9 19 -19 44.5t-18 53.5t-13 56t-5 53q0 88 34.5 167t95 138t144 93.5t181.5 34.5q97 0 173.5 -29t129.5 -84t81 -134.5t28 -179.5v-432h-1450zM1636 1196q0 27 10 50
t27.5 40.5t40.5 27.5t50 10t50 -10t40.5 -27.5t27.5 -40.5t10 -50t-10 -50t-27.5 -40.5t-40.5 -27.5t-50 -10t-50 10t-40.5 27.5t-27.5 40.5t-10 50zM1336 1196q0 27 10 50t27.5 40.5t40.5 27.5t50 10t50 -10t40.5 -27.5t27.5 -40.5t10 -50t-10 -50t-27.5 -40.5t-40.5 -27.5
t-50 -10t-50 10t-40.5 27.5t-27.5 40.5t-10 50zM1487 1466q0 27 10 50t27.5 40.5t40.5 27.5t50 10t50 -10t40.5 -27.5t27.5 -40.5t10 -50t-10 -50t-27.5 -40.5t-40.5 -27.5t-50 -10t-50 10t-40.5 27.5t-27.5 40.5t-10 50z" />
    <glyph glyph-name="uni06A9" unicode="&#x6a9;" horiz-adv-x="1730" arabic-form="isolated" 
d="M561 0q-119 0 -207.5 14t-152 39.5t-104.5 61t-64.5 78.5t-33 92t-9.5 102q0 20 2 47t5.5 56.5t7.5 59.5t9 56l231 -20q-7 -38 -12.5 -76t-5.5 -76q0 -59 15.5 -99.5t59.5 -66.5t122.5 -37.5t204.5 -11.5h569q60 0 98.5 9t61 25.5t31 40t8.5 52.5q0 85 -97.5 180.5
t-280.5 204.5l424 715l190 -122l-310 -537q71 -44 129.5 -94.5t100 -106t64.5 -116.5t23 -127q0 -71 -23 -133t-73.5 -109t-130 -74t-191.5 -27h-661z" />
    <glyph glyph-name="uni06AF" unicode="&#x6af;" horiz-adv-x="1730" arabic-form="isolated" 
d="M770 870l436 723l187 -114l-444 -714zM561 0q-119 0 -207.5 14t-152 39.5t-104.5 61t-64.5 78.5t-33 92t-9.5 102q0 20 2 47t5.5 56.5t7.5 59.5t9 56l231 -20q-7 -38 -12.5 -76t-5.5 -76q0 -59 15.5 -99.5t59.5 -66.5t122.5 -37.5t204.5 -11.5h569q60 0 98.5 9t61 25.5
t31 40t8.5 52.5q0 85 -97.5 180.5t-280.5 204.5l424 715l190 -122l-310 -537q71 -44 129.5 -94.5t100 -106t64.5 -116.5t23 -127q0 -71 -23 -133t-73.5 -109t-130 -74t-191.5 -27h-661z" />
    <glyph glyph-name="uni06BA" unicode="&#x6ba;" horiz-adv-x="1339" arabic-form="isolated" 
d="M990 199q0 28 -5.5 69.5t-16 89t-25.5 97.5t-35 95l253 72q15 -43 30.5 -96t28.5 -109.5t21 -113t8 -104.5q0 -138 -42.5 -254.5t-123.5 -201t-198.5 -131.5t-266.5 -47q-162 0 -280.5 45.5t-196 122t-114.5 176.5t-37 210q0 51 10 106.5t28 111t42.5 108t52.5 96.5
l208 -116q-17 -27 -30.5 -60.5t-22.5 -70.5t-14 -76t-5 -75q0 -75 26 -140t73 -113t113 -75t147 -27q190 0 281 107t91 304z" />
    <glyph glyph-name="uni06BE" unicode="&#x6be;" horiz-adv-x="1496" arabic-form="isolated" 
d="M317 0q-48 0 -74.5 -14t-40 -39.5t-17.5 -62t-6 -80.5h-136q-22 41 -37.5 93.5t-15.5 108.5q0 63 20.5 104t55 65t80.5 34t97 10h83q-26 54 -40 110.5t-14 98.5q0 48 12.5 97t34.5 95.5t52 88t65 76.5q-8 3 -24.5 7.5t-32.5 8.5q7 21 20 45t28.5 48.5t33.5 48.5t35 45
q240 -48 409 -106t276 -137.5t156 -187t49 -252.5v-16.5t-1.5 -43t-4 -90t-6.5 -155.5h-1057zM654 714q-34 0 -60 -19t-43.5 -51.5t-26.5 -74.5t-9 -87q0 -38 6 -75.5t18.5 -72.5t31.5 -64.5t44 -50.5h113q23 45 36.5 110.5t13.5 134.5q0 48 -7 93.5t-22 80t-38.5 55.5
t-56.5 21zM1133 219q3 23 5 51t2 51q0 39 -8 82t-26.5 82.5t-48 73t-71.5 53.5q13 -35 18 -78.5t5 -81.5q0 -61 -12.5 -124t-29.5 -109h166z" />
    <glyph glyph-name="uni06C1" unicode="&#x6c1;" horiz-adv-x="933" arabic-form="isolated" 
d="M397 0q-97 0 -172.5 29.5t-127.5 80t-79.5 118.5t-27.5 145q0 84 19 155t51 127.5t75 99.5t91 72t98 43.5t98 14.5q75 0 150.5 -31.5t135.5 -95t97.5 -160t37.5 -225.5q0 -72 -28 -139.5t-79.5 -119.5t-125 -83t-163.5 -31h-50zM229 406q0 -95 50.5 -141t135.5 -46h21
q40 0 70 15t49.5 40.5t29 59.5t9.5 72q0 69 -16 121.5t-41.5 87.5t-56.5 53t-60 18q-36 0 -70 -17t-61 -52t-43.5 -87.5t-16.5 -123.5z" />
    <glyph glyph-name="uni06C2.fina" unicode="&#x6c2;" horiz-adv-x="790" 
d="M533 1022q-26 6 -56.5 11t-53.5 5q-45 0 -69.5 -19t-24.5 -59q0 -19 8.5 -38.5t26.5 -36t45 -27t64 -10.5h89v-158h-511v158h121q-21 27 -35 66.5t-14 77.5q0 42 16.5 79t50 65.5t86 45t124.5 16.5q28 0 65 -2t93 -12zM-1 -59q-7 32 -8 51.5t-1 39.5q0 111 28 201
t76 153.5t111 98t133 34.5q43 0 78 -14t64.5 -36.5t54 -51t47.5 -57.5q20 -26 41.5 -51t43 -45t44 -32.5t45.5 -12.5h38q28 0 44 -4t23.5 -13t9 -22.5t1.5 -32.5v-70q0 -26 -3 -41t-12 -23t-24 -10.5t-39 -2.5h-45q-53 0 -93.5 16t-72.5 41.5t-58.5 57t-50.5 62.5
q-19 25 -37.5 48t-38 41t-40 28.5t-43.5 10.5q-25 0 -48.5 -19t-42 -56.5t-29.5 -93.5t-11 -131v-64h-185z" />
    <glyph glyph-name="uni06C3.fina" unicode="&#x6c3;" horiz-adv-x="1037" 
d="M615 673q-86 -18 -155 -42.5t-118.5 -56t-76 -71t-26.5 -87.5q0 -39 15.5 -66t40 -43.5t55.5 -23.5t62 -7q57 0 110 16t93 42v339zM873 343q0 -36 3.5 -59.5t14 -38t29 -20.5t49.5 -6h72q28 0 44 -4t23.5 -13t9 -22.5t1.5 -32.5v-70q0 -26 -3 -41t-12 -23t-24 -10.5
t-39 -2.5h-117q-68 0 -117 10.5t-83.5 28t-56.5 41t-35 50.5q-65 -34 -126 -48t-128 -14t-136 18.5t-125 57.5t-91.5 100.5t-35.5 147.5q0 76 30 137.5t80.5 110.5t115 87t134 66.5t138.5 48.5t127 34v113h258v-646zM601 1248q0 27 10 50t27.5 40.5t40.5 27.5t50 10t50 -10
t40.5 -27.5t27.5 -40.5t10 -50t-10 -50t-27.5 -40.5t-40.5 -27.5t-50 -10t-50 10t-40.5 27.5t-27.5 40.5t-10 50zM301 1248q0 27 10 50t27.5 40.5t40.5 27.5t50 10t50 -10t40.5 -27.5t27.5 -40.5t10 -50t-10 -50t-27.5 -40.5t-40.5 -27.5t-50 -10t-50 10t-40.5 27.5
t-27.5 40.5t-10 50z" />
    <glyph glyph-name="uni06CC" unicode="&#x6cc;" horiz-adv-x="1552" arabic-form="isolated" 
d="M1104 10q0 22 -10.5 44t-28 43t-39.5 40t-44 37q-36 28 -73.5 60.5t-67.5 70.5t-49.5 81t-19.5 92q0 93 40.5 158t103.5 105.5t139 59t147 18.5q51 0 99.5 -8t86.5 -18q45 -11 84 -25l-59 -225q-38 17 -76 31q-32 11 -70 21t-70 10q-26 0 -55 -6t-54 -19.5t-41.5 -36
t-16.5 -56.5q0 -20 12 -41.5t31 -42.5t42.5 -41.5t45.5 -38.5q34 -27 70.5 -59.5t66.5 -67.5t49.5 -72.5t19.5 -74.5q0 -56 -20.5 -114.5t-59.5 -112.5t-96 -102t-130.5 -84t-162 -56.5t-190.5 -20.5q-137 0 -243.5 25.5t-186 68t-135 98.5t-89.5 117.5t-49 125t-15 120.5
q0 112 39.5 220.5t104.5 194.5l210 -115q-49 -61 -72 -136t-23 -148q0 -72 26.5 -135.5t82.5 -110.5t142.5 -74t205.5 -27q81 0 153.5 17.5t126.5 48.5t86 72.5t32 88.5z" />
    <glyph glyph-name="uni06D2" unicode="&#x6d2;" horiz-adv-x="1914" arabic-form="isolated" 
d="M775 550l-355 -148q-35 -15 -69.5 -31t-62 -33t-44.5 -35t-17 -36q0 -36 38 -58t111 -34t180 -16t246 -4q79 0 167.5 3.5t180 9t182.5 13.5t175 18t157.5 20.5t129.5 22.5q-5 -63 -7.5 -103.5t-4.5 -65t-3 -37.5t-2 -21q-79 -15 -168 -27.5t-180.5 -22t-183 -16
t-175 -10.5t-157 -6t-129.5 -2q-232 0 -385 23t-244 64t-128 96.5t-37 120.5q0 72 33 128.5t87.5 102t124 81.5t141.5 67l332 140z" />
    <glyph glyph-name="uni06D3" unicode="&#x6d3;" horiz-adv-x="1914" arabic-form="isolated" 
d="M775 550l-355 -148q-35 -15 -69.5 -31t-62 -33t-44.5 -35t-17 -36q0 -36 38 -58t111 -34t180 -16t246 -4q79 0 167.5 3.5t180 9t182.5 13.5t175 18t157.5 20.5t129.5 22.5q-5 -63 -7.5 -103.5t-4.5 -65t-3 -37.5t-2 -21q-79 -15 -168 -27.5t-180.5 -22t-183 -16
t-175 -10.5t-157 -6t-129.5 -2q-232 0 -385 23t-244 64t-128 96.5t-37 120.5q0 72 33 128.5t87.5 102t124 81.5t141.5 67l332 140zM526 1149q-26 6 -56.5 11t-53.5 5q-45 0 -69.5 -19t-24.5 -59q0 -19 8.5 -38.5t26.5 -36t45 -27t64 -10.5h89v-158h-511v158h121
q-21 27 -35 66.5t-14 77.5q0 42 16.5 79t50 65.5t86 45t124.5 16.5q28 0 65 -2t93 -12z" />
    <glyph glyph-name="uni06D5.fina" unicode="&#x6d5;" horiz-adv-x="1037" 
d="M615 673q-86 -18 -155 -42.5t-118.5 -56t-76 -71t-26.5 -87.5q0 -39 15.5 -66t40 -43.5t55.5 -23.5t62 -7q57 0 110 16t93 42v339zM873 343q0 -36 3.5 -59.5t14 -38t29 -20.5t49.5 -6h72q28 0 44 -4t23.5 -13t9 -22.5t1.5 -32.5v-70q0 -26 -3 -41t-12 -23t-24 -10.5
t-39 -2.5h-117q-68 0 -117 10.5t-83.5 28t-56.5 41t-35 50.5q-65 -34 -126 -48t-128 -14t-136 18.5t-125 57.5t-91.5 100.5t-35.5 147.5q0 76 30 137.5t80.5 110.5t115 87t134 66.5t138.5 48.5t127 34v113h258v-646z" />
    <glyph glyph-name="uniFB51" unicode="&#x671;" horiz-adv-x="558" arabic-form="final" 
d="M130 1436h260v-1049q0 -50 7.5 -82.5t22 -51.5t37 -26.5t52.5 -7.5h49q28 0 44 -4t23.5 -13t9 -22.5t1.5 -32.5v-70q0 -26 -3 -41t-12 -23t-24 -10.5t-39 -2.5h-112q-84 0 -143.5 24t-98 67.5t-56.5 105t-18 135.5v1104zM378 1698q0 40 -19.5 55t-41.5 15q-14 0 -30 -4
t-31 -13.5t-27.5 -26.5t-19.5 -42h169v16zM9 1574v108h84v171h114v-33q26 27 59.5 39.5t71.5 12.5q35 0 63.5 -12.5t48.5 -35t30.5 -53.5t10.5 -68v-129h-482z" />
    <glyph glyph-name="uniFB57" unicode="&#x67e;" horiz-adv-x="1875" arabic-form="final" 
d="M561 0q-119 0 -207.5 14t-152 39.5t-104.5 61t-64.5 78.5t-33 92t-9.5 102q0 20 2 47t5.5 56.5t7.5 59.5t9 56l231 -20q-7 -38 -12.5 -76t-5.5 -76q0 -59 15.5 -99.5t59.5 -66.5t122.5 -37.5t204.5 -11.5h635q33 0 56.5 7t38 23.5t21.5 44.5t7 70v455h261v-490
q0 -18 -1.5 -35.5t-3.5 -34.5q49 -20 105.5 -30t117.5 -10h8q28 0 45 -4t25 -13t10.5 -22.5t2.5 -32.5v-70q0 -26 -4 -41t-13.5 -23t-25.5 -10.5t-40 -2.5h-11q-100 0 -170.5 22.5t-124.5 59.5q-35 -38 -87.5 -60t-127.5 -22h-792zM904 -287q0 27 10 50t27.5 40.5t40.5 27.5
t50 10t50 -10t40.5 -27.5t27.5 -40.5t10 -50t-10 -50t-27.5 -40.5t-40.5 -27.5t-50 -10t-50 10t-40.5 27.5t-27.5 40.5t-10 50zM604 -287q0 27 10 50t27.5 40.5t40.5 27.5t50 10t50 -10t40.5 -27.5t27.5 -40.5t10 -50t-10 -50t-27.5 -40.5t-40.5 -27.5t-50 -10t-50 10
t-40.5 27.5t-27.5 40.5t-10 50zM752 -574q0 27 10 50t27.5 40.5t40.5 27.5t50 10t50 -10t40.5 -27.5t27.5 -40.5t10 -50t-10 -50t-27.5 -40.5t-40.5 -27.5t-50 -10t-50 10t-40.5 27.5t-27.5 40.5t-10 50z" />
    <glyph glyph-name="uniFB58" unicode="&#x67e;" horiz-adv-x="643" arabic-form="initial" 
d="M-4 0q-24 0 -39 2.5t-24 10.5t-12 23t-3 41v70q0 19 1.5 32.5t9 22.5t23 13t44.5 4h256v601h261v-820h-517zM363 -287q0 27 10 50t27.5 40.5t40.5 27.5t50 10t50 -10t40.5 -27.5t27.5 -40.5t10 -50t-10 -50t-27.5 -40.5t-40.5 -27.5t-50 -10t-50 10t-40.5 27.5
t-27.5 40.5t-10 50zM63 -287q0 27 10 50t27.5 40.5t40.5 27.5t50 10t50 -10t40.5 -27.5t27.5 -40.5t10 -50t-10 -50t-27.5 -40.5t-40.5 -27.5t-50 -10t-50 10t-40.5 27.5t-27.5 40.5t-10 50zM211 -574q0 27 10 50t27.5 40.5t40.5 27.5t50 10t50 -10t40.5 -27.5t27.5 -40.5
t10 -50t-10 -50t-27.5 -40.5t-40.5 -27.5t-50 -10t-50 10t-40.5 27.5t-27.5 40.5t-10 50z" />
    <glyph glyph-name="uniFB59" unicode="&#x67e;" horiz-adv-x="715" arabic-form="medial" 
d="M493 329q0 -18 -1.5 -35.5t-3.5 -34.5q49 -20 105.5 -30t117.5 -10h8q28 0 44 -4t23.5 -13t9 -22.5t1.5 -32.5v-70q0 -26 -3 -41t-12 -23t-24 -10.5t-39 -2.5h-11q-100 0 -170.5 22.5t-124.5 59.5q-35 -38 -87.5 -60t-127.5 -22h-202q-24 0 -39 2.5t-24 10.5t-12 23
t-3 41v70q0 19 1.5 32.5t9 22.5t23 13t44.5 4h113q33 0 56.5 7t38 23.5t21.5 44.5t7 70v455h261v-490zM398 -287q0 27 10 50t27.5 40.5t40.5 27.5t50 10t50 -10t40.5 -27.5t27.5 -40.5t10 -50t-10 -50t-27.5 -40.5t-40.5 -27.5t-50 -10t-50 10t-40.5 27.5t-27.5 40.5t-10 50
zM98 -287q0 27 10 50t27.5 40.5t40.5 27.5t50 10t50 -10t40.5 -27.5t27.5 -40.5t10 -50t-10 -50t-27.5 -40.5t-40.5 -27.5t-50 -10t-50 10t-40.5 27.5t-27.5 40.5t-10 50zM246 -574q0 27 10 50t27.5 40.5t40.5 27.5t50 10t50 -10t40.5 -27.5t27.5 -40.5t10 -50t-10 -50
t-27.5 -40.5t-40.5 -27.5t-50 -10t-50 10t-40.5 27.5t-27.5 40.5t-10 50z" />
    <glyph glyph-name="uniFB67" unicode="&#x679;" horiz-adv-x="1875" arabic-form="final" 
d="M561 0q-119 0 -207.5 14t-152 39.5t-104.5 61t-64.5 78.5t-33 92t-9.5 102q0 20 2 47t5.5 56.5t7.5 59.5t9 56l231 -20q-7 -38 -12.5 -76t-5.5 -76q0 -59 15.5 -99.5t59.5 -66.5t122.5 -37.5t204.5 -11.5h635q33 0 56.5 7t38 23.5t21.5 44.5t7 70v455h261v-490
q0 -18 -1.5 -35.5t-3.5 -34.5q49 -20 105.5 -30t117.5 -10h8q28 0 45 -4t25 -13t10.5 -22.5t2.5 -32.5v-70q0 -26 -4 -41t-13.5 -23t-25.5 -10.5t-40 -2.5h-11q-100 0 -170.5 22.5t-124.5 59.5q-35 -38 -87.5 -60t-127.5 -22h-792zM602 991h82v437h123v-274q13 17 33 30
t42.5 22t44.5 14t40 5q48 0 81 -15.5t54 -43t30.5 -65t9.5 -80.5v-147h-540v117zM1024 1019q0 55 -19.5 76t-51.5 21q-19 0 -40 -9.5t-41 -26.5t-36 -39.5t-24 -49.5h212v28z" />
    <glyph glyph-name="uniFB68" unicode="&#x679;" horiz-adv-x="643" arabic-form="initial" 
d="M-4 0q-24 0 -39 2.5t-24 10.5t-12 23t-3 41v70q0 19 1.5 32.5t9 22.5t23 13t44.5 4h256v601h261v-820h-517zM96 1094h82v437h123v-274q13 17 33 30t42.5 22t44.5 14t40 5q48 0 81 -15.5t54 -43t30.5 -65t9.5 -80.5v-147h-540v117zM518 1122q0 55 -19.5 76t-51.5 21
q-19 0 -40 -9.5t-41 -26.5t-36 -39.5t-24 -49.5h212v28z" />
    <glyph glyph-name="uniFB69" unicode="&#x679;" horiz-adv-x="715" arabic-form="medial" 
d="M493 329q0 -18 -1.5 -35.5t-3.5 -34.5q49 -20 105.5 -30t117.5 -10h8q28 0 44 -4t23.5 -13t9 -22.5t1.5 -32.5v-70q0 -26 -3 -41t-12 -23t-24 -10.5t-39 -2.5h-11q-100 0 -170.5 22.5t-124.5 59.5q-35 -38 -87.5 -60t-127.5 -22h-202q-24 0 -39 2.5t-24 10.5t-12 23
t-3 41v70q0 19 1.5 32.5t9 22.5t23 13t44.5 4h113q33 0 56.5 7t38 23.5t21.5 44.5t7 70v455h261v-490zM93 1094h82v437h123v-274q13 17 33 30t42.5 22t44.5 14t40 5q48 0 81 -15.5t54 -43t30.5 -65t9.5 -80.5v-147h-540v117zM515 1122q0 55 -19.5 76t-51.5 21
q-19 0 -40 -9.5t-41 -26.5t-36 -39.5t-24 -49.5h212v28z" />
    <glyph glyph-name="uniFB6B" unicode="&#x6a4;" horiz-adv-x="2161" arabic-form="final" 
d="M561 0q-119 0 -207.5 14t-152 39.5t-104.5 61t-64.5 78.5t-33 92t-9.5 102q0 20 2 47t5.5 56.5t7.5 59.5t9 56l231 -20q-7 -38 -12.5 -76t-5.5 -76q0 -59 15.5 -99.5t59.5 -66.5t122.5 -37.5t204.5 -11.5h563q-20 26 -36 56t-27 60t-17 58t-6 49q0 84 33 159.5t95 133
t149.5 91t197.5 33.5q97 0 171.5 -30t125.5 -81.5t77 -120.5t26 -146q0 -32 -6.5 -68t-16 -71t-20.5 -67t-20 -56h243q28 0 45 -4t25 -13t10.5 -22.5t2.5 -32.5v-70q0 -26 -4 -41t-13.5 -23t-25.5 -10.5t-40 -2.5h-139q-51 0 -105.5 3t-107 7.5t-100.5 10t-87 11.5
q-44 -5 -105.5 -9.5t-132 -8t-146 -6t-145.5 -4.5t-131 -3t-104 -1h-297zM1355 464q0 -56 20.5 -101t55.5 -77t82 -49.5t101 -17.5h38q11 18 23 43.5t22 55t16.5 62.5t6.5 68q0 51 -14.5 90.5t-39 66t-56 40t-65.5 13.5q-35 0 -69 -11.5t-61 -35.5t-43.5 -60.5t-16.5 -86.5z
M1580 1196q0 27 10 50t27.5 40.5t40.5 27.5t50 10t50 -10t40.5 -27.5t27.5 -40.5t10 -50t-10 -50t-27.5 -40.5t-40.5 -27.5t-50 -10t-50 10t-40.5 27.5t-27.5 40.5t-10 50zM1280 1196q0 27 10 50t27.5 40.5t40.5 27.5t50 10t50 -10t40.5 -27.5t27.5 -40.5t10 -50t-10 -50
t-27.5 -40.5t-40.5 -27.5t-50 -10t-50 10t-40.5 27.5t-27.5 40.5t-10 50zM1431 1466q0 27 10 50t27.5 40.5t40.5 27.5t50 10t50 -10t40.5 -27.5t27.5 -40.5t10 -50t-10 -50t-27.5 -40.5t-40.5 -27.5t-50 -10t-50 10t-40.5 27.5t-27.5 40.5t-10 50z" />
    <glyph glyph-name="uniFB6C" unicode="&#x6a4;" horiz-adv-x="1229" arabic-form="initial" 
d="M252 426q0 91 34 170t94.5 137.5t144 92t181.5 33.5q97 0 173.5 -29t129.5 -84t81.5 -134.5t28.5 -179.5v-432h-1119q-24 0 -40 2.5t-25.5 10.5t-13.5 23t-4 41v70q0 19 2.5 32.5t10.5 22.5t24.5 13t45.5 4h307q-23 37 -39 93t-16 114zM860 219v172q0 73 -15 122
t-39.5 78.5t-56.5 42t-66 12.5q-38 0 -71.5 -16t-58 -44.5t-39 -68t-14.5 -87.5q0 -47 16 -86t45.5 -67t72 -43t96.5 -15h130zM698 1196q0 27 10 50t27.5 40.5t40.5 27.5t50 10t50 -10t40.5 -27.5t27.5 -40.5t10 -50t-10 -50t-27.5 -40.5t-40.5 -27.5t-50 -10t-50 10
t-40.5 27.5t-27.5 40.5t-10 50zM398 1196q0 27 10 50t27.5 40.5t40.5 27.5t50 10t50 -10t40.5 -27.5t27.5 -40.5t10 -50t-10 -50t-27.5 -40.5t-40.5 -27.5t-50 -10t-50 10t-40.5 27.5t-27.5 40.5t-10 50zM549 1466q0 27 10 50t27.5 40.5t40.5 27.5t50 10t50 -10t40.5 -27.5
t27.5 -40.5t10 -50t-10 -50t-27.5 -40.5t-40.5 -27.5t-50 -10t-50 10t-40.5 27.5t-27.5 40.5t-10 50z" />
    <glyph glyph-name="uniFB6D" unicode="&#x6a4;" horiz-adv-x="1224" arabic-form="medial" 
d="M1085 0q-113 0 -216.5 9t-181.5 23q-57 -8 -124.5 -14t-139.5 -9.5t-145 -6t-142 -2.5h-137q-24 0 -40 2.5t-25.5 10.5t-13.5 23t-4 41v70q0 19 2.5 32.5t10.5 22.5t24.5 13t45.5 4h250q-20 26 -35 56.5t-25 60.5t-15 57.5t-5 48.5q0 84 33 159.5t95 133t149.5 91
t197.5 33.5q97 0 172 -30t126 -81.5t77 -120.5t26 -146q0 -33 -6.5 -69t-16 -71t-20.5 -66.5t-21 -55.5h242q28 0 45 -4t25 -13t10.5 -22.5t2.5 -32.5v-70q0 -26 -4 -41t-13.5 -23t-25.5 -10.5t-40 -2.5h-138zM418 464q0 -56 20.5 -101t55.5 -77t82 -49.5t101 -17.5h39
q10 19 22 45t22 56t16.5 63t6.5 65q0 51 -14.5 90.5t-39 66t-56 40t-64.5 13.5q-35 0 -69.5 -11.5t-61.5 -35.5t-43.5 -60.5t-16.5 -86.5zM613 1196q0 27 10 50t27.5 40.5t40.5 27.5t50 10t50 -10t40.5 -27.5t27.5 -40.5t10 -50t-10 -50t-27.5 -40.5t-40.5 -27.5t-50 -10
t-50 10t-40.5 27.5t-27.5 40.5t-10 50zM313 1196q0 27 10 50t27.5 40.5t40.5 27.5t50 10t50 -10t40.5 -27.5t27.5 -40.5t10 -50t-10 -50t-27.5 -40.5t-40.5 -27.5t-50 -10t-50 10t-40.5 27.5t-27.5 40.5t-10 50zM464 1466q0 27 10 50t27.5 40.5t40.5 27.5t50 10t50 -10
t40.5 -27.5t27.5 -40.5t10 -50t-10 -50t-27.5 -40.5t-40.5 -27.5t-50 -10t-50 10t-40.5 27.5t-27.5 40.5t-10 50z" />
    <glyph glyph-name="uniFB7B" unicode="&#x686;" horiz-adv-x="1108" arabic-form="final" 
d="M513 0q-63 0 -114 -17t-87.5 -51t-56.5 -86t-20 -121q0 -54 17.5 -103t55 -86t95 -59t137.5 -22q47 0 110.5 9t125.5 22v-203q-37 -9 -68 -16t-60.5 -11.5t-58.5 -7t-63 -2.5q-97 0 -175 19t-137.5 52.5t-102 78t-69.5 95.5t-39.5 106t-12.5 109q0 124 38.5 219.5
t109.5 160.5t170 99t221 34h199q-14 26 -25.5 64.5t-20.5 99.5q-7 47 -16.5 97.5t-31.5 92.5t-60.5 69t-103.5 27q-20 0 -49 -3t-62 -9t-68 -15.5t-68 -23.5v206q70 20 140.5 36t157.5 16q85 0 152.5 -24t116 -69t79 -108.5t41.5 -142.5q9 -59 18.5 -115.5t25 -100.5
t39.5 -70.5t62 -26.5h57q28 0 44 -4t23.5 -13t9 -22.5t1.5 -32.5v-70q0 -26 -3 -41t-12 -23t-24 -10.5t-39 -2.5h-599zM625.597 -166.597q0 21.5996 8 40q8 18.3994 22 32.3994q13.999 13.999 32.3994 21.999q18.3994 8 39.999 8t39.999 -8q18.4004 -8 32.3994 -21.999
q14 -14 22 -32.3994q8 -18.4004 8 -40t-8 -39.999q-8 -18.4004 -22 -32.3994q-13.999 -14 -32.3994 -22q-18.3994 -8 -39.999 -8t-39.999 8q-18.4004 8 -32.3994 22q-14 13.999 -22 32.3994q-8 18.3994 -8 39.999zM385.601 -166.597q0 21.5996 8 40
q7.99902 18.3994 21.999 32.3994q14 13.999 32.3994 21.999q18.4004 8 40 8t39.999 -8t32.3994 -21.999q14 -14 22 -32.3994q8 -18.4004 8 -40t-8 -39.999q-8 -18.4004 -22 -32.3994q-14 -14 -32.3994 -22t-39.999 -8t-40 8q-18.3994 8 -32.3994 22
q-14 13.999 -21.999 32.3994q-8 18.3994 -8 39.999zM503.998 -396.193q0 21.5996 8 40q8 18.3994 22 32.3994t32.3994 21.999q18.3994 8 39.999 8q21.6006 0 40 -8q18.3994 -7.99902 32.3994 -21.999t22 -32.3994q7.99902 -18.4004 7.99902 -40t-7.99902 -39.999
q-8 -18.3994 -22 -32.3994t-32.3994 -22t-40 -8q-21.5996 0 -39.999 8t-32.3994 22t-22 32.3994t-8 39.999z" />
    <glyph glyph-name="uniFB7C" unicode="&#x686;" horiz-adv-x="1062" arabic-form="initial" 
d="M147 824q70 20 140.5 36t157.5 16t154.5 -25.5t115.5 -71t77.5 -108.5t41.5 -138q9 -62 19 -118.5t26 -100t40.5 -69.5t62.5 -26v-219h-986q-24 0 -39 2.5t-24 10.5t-12 23t-3 41v70q0 19 1.5 32.5t9 22.5t23 13t44.5 4h658q-19 33 -28 66t-15 71q-8 56 -19.5 112
t-34.5 100.5t-61 72.5t-100 28q-42 0 -108.5 -11t-140.5 -40v206zM516 -287q0 27 10 50t27.5 40.5t40.5 27.5t50 10t50 -10t40.5 -27.5t27.5 -40.5t10 -50t-10 -50t-27.5 -40.5t-40.5 -27.5t-50 -10t-50 10t-40.5 27.5t-27.5 40.5t-10 50zM216 -287q0 27 10 50t27.5 40.5
t40.5 27.5t50 10t50 -10t40.5 -27.5t27.5 -40.5t10 -50t-10 -50t-27.5 -40.5t-40.5 -27.5t-50 -10t-50 10t-40.5 27.5t-27.5 40.5t-10 50zM364 -574q0 27 10 50t27.5 40.5t40.5 27.5t50 10t50 -10t40.5 -27.5t27.5 -40.5t10 -50t-10 -50t-27.5 -40.5t-40.5 -27.5t-50 -10
t-50 10t-40.5 27.5t-27.5 40.5t-10 50z" />
    <glyph glyph-name="uniFB7D" unicode="&#x686;" horiz-adv-x="1033" arabic-form="medial" 
d="M148 824q70 21 140 36.5t158 15.5q87 0 154 -25.5t115 -71t77.5 -108.5t41.5 -138q9 -62 18.5 -118.5t21.5 -100t28.5 -69.5t40.5 -26h94q28 0 44 -4t23.5 -13t9 -22.5t1.5 -32.5v-70q0 -26 -3 -41t-12 -23t-24 -10.5t-39 -2.5h-1041q-24 0 -39 2.5t-24 10.5t-12 23
t-3 41v70q0 19 1.5 32.5t9 22.5t23 13t44.5 4h658q-13 27 -25 63t-18 74q-8 56 -19.5 112t-34.5 100.5t-61 72.5t-100 28q-21 0 -51 -3t-63.5 -9t-68.5 -16t-65 -23v206zM515 -287q0 27 10 50t27.5 40.5t40.5 27.5t50 10t50 -10t40.5 -27.5t27.5 -40.5t10 -50t-10 -50
t-27.5 -40.5t-40.5 -27.5t-50 -10t-50 10t-40.5 27.5t-27.5 40.5t-10 50zM215 -287q0 27 10 50t27.5 40.5t40.5 27.5t50 10t50 -10t40.5 -27.5t27.5 -40.5t10 -50t-10 -50t-27.5 -40.5t-40.5 -27.5t-50 -10t-50 10t-40.5 27.5t-27.5 40.5t-10 50zM363 -574q0 27 10 50
t27.5 40.5t40.5 27.5t50 10t50 -10t40.5 -27.5t27.5 -40.5t10 -50t-10 -50t-27.5 -40.5t-40.5 -27.5t-50 -10t-50 10t-40.5 27.5t-27.5 40.5t-10 50z" />
    <glyph glyph-name="uniFB89" unicode="&#x688;" horiz-adv-x="1094" arabic-form="final" 
d="M39 0v219h384q60 0 97.5 9t57.5 25.5t27 39.5t7 50q0 48 -29 104t-76.5 113.5t-107 114t-120.5 105.5l188 184q195 -161 297 -313.5t102 -289.5q0 -49 -11 -96q51 -24 110.5 -35t124.5 -11h8q28 0 44 -4t23.5 -13t9 -22.5t1.5 -32.5v-70q0 -26 -3 -41t-12 -23t-24 -10.5
t-39 -2.5h-11q-113 0 -191 29t-133 76q-54 -49 -138.5 -77t-206.5 -28h-379zM134 1158h82v437h123v-274q13 17 33 30t42.5 22t44.5 14t40 5q48 0 81 -15.5t54 -43t30.5 -65t9.5 -80.5v-147h-540v117zM556 1186q0 55 -19.5 76t-51.5 21q-19 0 -40 -9.5t-41 -26.5t-36 -39.5
t-24 -49.5h212v28z" />
    <glyph glyph-name="uniFB8B" unicode="&#x698;" horiz-adv-x="726" arabic-form="final" 
d="M-6 -191q87 17 141 43t83.5 64.5t40 91t10.5 122.5v690h260v-601h201q28 0 44 -4t23.5 -13t9 -22.5t1.5 -32.5v-70q0 -26 -3 -41t-12 -23t-24 -10.5t-39 -2.5h-215q-16 -96 -52.5 -166t-96.5 -119t-143.5 -80t-194.5 -48zM425 1196q0 27 10 50t27.5 40.5t40.5 27.5t50 10
t50 -10t40.5 -27.5t27.5 -40.5t10 -50t-10 -50t-27.5 -40.5t-40.5 -27.5t-50 -10t-50 10t-40.5 27.5t-27.5 40.5t-10 50zM125 1196q0 27 10 50t27.5 40.5t40.5 27.5t50 10t50 -10t40.5 -27.5t27.5 -40.5t10 -50t-10 -50t-27.5 -40.5t-40.5 -27.5t-50 -10t-50 10t-40.5 27.5
t-27.5 40.5t-10 50zM276 1466q0 27 10 50t27.5 40.5t40.5 27.5t50 10t50 -10t40.5 -27.5t27.5 -40.5t10 -50t-10 -50t-27.5 -40.5t-40.5 -27.5t-50 -10t-50 10t-40.5 27.5t-27.5 40.5t-10 50z" />
    <glyph glyph-name="uniFB8D" unicode="&#x691;" horiz-adv-x="726" arabic-form="final" 
d="M-6 -191q87 17 141 43t83.5 64.5t40 91t10.5 122.5v690h260v-601h201q28 0 44 -4t23.5 -13t9 -22.5t1.5 -32.5v-70q0 -26 -3 -41t-12 -23t-24 -10.5t-39 -2.5h-215q-16 -96 -52.5 -166t-96.5 -119t-143.5 -80t-194.5 -48zM72 1173h82v437h123v-274q13 17 33 30t42.5 22
t44.5 14t40 5q48 0 81 -15.5t54 -43t30.5 -65t9.5 -80.5v-147h-540v117zM494 1201q0 55 -19.5 76t-51.5 21q-19 0 -40 -9.5t-41 -26.5t-36 -39.5t-24 -49.5h212v28z" />
    <glyph glyph-name="uniFB8F" unicode="&#x6a9;" horiz-adv-x="1876" arabic-form="final" 
d="M561 0q-119 0 -207.5 14t-152 39.5t-104.5 61t-64.5 78.5t-33 92t-9.5 102q0 20 2 47t5.5 56.5t7.5 59.5t9 56l231 -20q-7 -38 -12.5 -76t-5.5 -76q0 -59 15.5 -99.5t59.5 -66.5t122.5 -37.5t204.5 -11.5h569q60 0 98.5 9t61 25.5t31 40t8.5 52.5q0 85 -97.5 180.5
t-280.5 204.5l424 715l190 -122l-311 -537q72 -44 130.5 -94.5t100 -106t64.5 -116.5t23 -127q0 -42 -7 -77q51 -25 112 -36t127 -11h8q28 0 44 -4t23.5 -13t9 -22.5t1.5 -32.5v-70q0 -26 -3 -41t-12 -23t-24 -10.5t-39 -2.5h-11q-113 0 -190 29t-133 75q-51 -48 -130 -76
t-194 -28h-661z" />
    <glyph glyph-name="uniFB90" unicode="&#x6a9;" horiz-adv-x="833" arabic-form="initial" 
d="M-4 0q-24 0 -39 2.5t-24 10.5t-12 23t-3 41v70q0 19 1.5 32.5t9 22.5t23 13t44.5 4h305q60 0 98.5 9t61 25.5t31 40t8.5 52.5q0 42 -26 85.5t-75.5 89.5t-121.5 95t-163 103l432 727l190 -122l-304 -526q79 -59 137.5 -113t97 -108.5t57.5 -111.5t19 -122q0 -71 -23 -133
t-73.5 -109t-130 -74t-191.5 -27h-329z" />
    <glyph glyph-name="uniFB91" unicode="&#x6a9;" horiz-adv-x="991" arabic-form="medial" 
d="M-4 0q-24 0 -39 2.5t-24 10.5t-12 23t-3 41v70q0 19 1.5 32.5t9 22.5t23 13t44.5 4h305q60 0 98.5 9t61 25.5t31 40t8.5 52.5q0 42 -26 85.5t-75.5 89.5t-121.5 95t-163 103l432 727l190 -122l-304 -526q79 -59 137.5 -113t97 -108.5t57.5 -111.5t19 -122q0 -37 -6 -71
q52 -28 116 -40.5t134 -12.5h8q28 0 44 -4t23.5 -13t9 -22.5t1.5 -32.5v-70q0 -26 -3 -41t-12 -23t-24 -10.5t-39 -2.5h-11q-116 0 -194.5 30.5t-134.5 78.5q-51 -51 -131.5 -80t-198.5 -29h-329z" />
    <glyph glyph-name="uniFB93" unicode="&#x6af;" horiz-adv-x="1876" arabic-form="final" 
d="M770 870l436 723l187 -114l-444 -714zM561 0q-119 0 -207.5 14t-152 39.5t-104.5 61t-64.5 78.5t-33 92t-9.5 102q0 20 2 47t5.5 56.5t7.5 59.5t9 56l231 -20q-7 -38 -12.5 -76t-5.5 -76q0 -59 15.5 -99.5t59.5 -66.5t122.5 -37.5t204.5 -11.5h569q60 0 98.5 9t61 25.5
t31 40t8.5 52.5q0 85 -97.5 180.5t-280.5 204.5l424 715l190 -122l-311 -537q72 -44 130.5 -94.5t100 -106t64.5 -116.5t23 -127q0 -42 -7 -77q51 -25 112 -36t127 -11h8q28 0 44 -4t23.5 -13t9 -22.5t1.5 -32.5v-70q0 -26 -3 -41t-12 -23t-24 -10.5t-39 -2.5h-11
q-113 0 -190 29t-133 75q-51 -48 -130 -76t-194 -28h-661z" />
    <glyph glyph-name="uniFB94" unicode="&#x6af;" horiz-adv-x="1002" arabic-form="initial" 
d="M-12 866l436 723l187 -114l-444 -714zM1 0q-24 0 -39 2.5t-24 10.5t-12 23t-3 41v70q0 19 1.5 32.5t9 22.5t23 13t44.5 4h420q60 0 98.5 9t61 25.5t31 40t8.5 52.5q0 42 -26 85.5t-75.5 89.5t-121.5 95t-163 103l432 727l190 -122l-304 -526q79 -59 137.5 -113t97 -108.5
t57.5 -111.5t19 -122q0 -71 -23 -133t-73.5 -109t-130 -74t-191.5 -27h-444z" />
    <glyph glyph-name="uniFB95" unicode="&#x6af;" horiz-adv-x="1187" arabic-form="medial" 
d="M16 857l436 723l187 -114l-444 -714zM1 0q-24 0 -39 2.5t-24 10.5t-12 23t-3 41v70q0 19 1.5 32.5t9 22.5t23 13t44.5 4h447q60 0 98.5 9t61 25.5t31 40t8.5 52.5q0 42 -26 85.5t-75.5 89.5t-121.5 95t-163 103l432 727l190 -122l-304 -526q79 -59 137.5 -113t97 -108.5
t57.5 -111.5t19 -122q0 -37 -6 -71q52 -28 116 -40.5t134 -12.5h8q28 0 44 -4t23.5 -13t9 -22.5t1.5 -32.5v-70q0 -26 -3 -41t-12 -23t-24 -10.5t-39 -2.5h-11q-116 0 -194.5 30.5t-134.5 78.5q-51 -51 -131.5 -80t-198.5 -29h-471z" />
    <glyph glyph-name="uniFB9F" unicode="&#x6ba;" horiz-adv-x="1493" arabic-form="final" 
d="M990 199q0 28 -5.5 69.5t-16 89t-25.5 97.5t-35 95l253 72q12 -36 25 -79t24.5 -90t20.5 -94.5t14 -92.5q51 -25 112 -36t127 -11h8q28 0 45 -4t25 -13t10.5 -22.5t2.5 -32.5v-70q0 -26 -4 -41t-13.5 -23t-25.5 -10.5t-40 -2.5h-11q-78 0 -138 14t-108 39
q-20 -109 -71 -199t-129.5 -154t-183 -99.5t-233.5 -35.5q-162 0 -280.5 45.5t-196 122t-114.5 176.5t-37 210q0 51 10 106.5t28 111t42.5 108t52.5 96.5l208 -116q-17 -27 -30.5 -60.5t-22.5 -70.5t-14 -76t-5 -75q0 -75 26 -140t73 -113t113 -75t147 -27q190 0 281 107
t91 304z" />
    <glyph glyph-name="uniFBA5" unicode="&#x6c0;" horiz-adv-x="1037" arabic-form="final" 
d="M615 673q-86 -18 -155 -42.5t-118.5 -56t-76 -71t-26.5 -87.5q0 -39 15.5 -66t40 -43.5t55.5 -23.5t62 -7q57 0 110 16t93 42v339zM873 343q0 -36 3.5 -59.5t14 -38t29 -20.5t49.5 -6h72q28 0 44 -4t23.5 -13t9 -22.5t1.5 -32.5v-70q0 -26 -3 -41t-12 -23t-24 -10.5
t-39 -2.5h-117q-68 0 -117 10.5t-83.5 28t-56.5 41t-35 50.5q-65 -34 -126 -48t-128 -14t-136 18.5t-125 57.5t-91.5 100.5t-35.5 147.5q0 76 30 137.5t80.5 110.5t115 87t134 66.5t138.5 48.5t127 34v113h258v-646zM688 1425q-26 6 -56.5 11t-53.5 5q-45 0 -69.5 -19
t-24.5 -59q0 -19 8.5 -38.5t26.5 -36t45 -27t64 -10.5h89v-158h-511v158h121q-21 27 -35 66.5t-14 77.5q0 42 16.5 79t50 65.5t86 45t124.5 16.5q28 0 65 -2t93 -12z" />
    <glyph glyph-name="uniFBA7" unicode="&#x6c1;" horiz-adv-x="790" arabic-form="final" 
d="M-1 -59q-7 32 -8 51.5t-1 39.5q0 111 28 201t76 153.5t111 98t133 34.5q43 0 78 -14t64.5 -36.5t54 -51t47.5 -57.5q20 -26 41.5 -51t43 -45t44 -32.5t45.5 -12.5h38q28 0 44 -4t23.5 -13t9 -22.5t1.5 -32.5v-70q0 -26 -3 -41t-12 -23t-24 -10.5t-39 -2.5h-45
q-53 0 -93.5 16t-72.5 41.5t-58.5 57t-50.5 62.5q-19 25 -37.5 48t-38 41t-40 28.5t-43.5 10.5q-25 0 -48.5 -19t-42 -56.5t-29.5 -93.5t-11 -131v-64h-185z" />
    <glyph glyph-name="uniFBA8" unicode="&#x6c1;" horiz-adv-x="682" arabic-form="initial" 
d="M-4 0q-24 0 -39 2.5t-24 10.5t-12 23t-3 41v70q0 19 1.5 32.5t9 22.5t23 13t44.5 4h295v601h261v-820h-87q-39 -56 -65 -112.5t-26 -103.5q0 -16 3.5 -31.5t10.5 -27.5t18.5 -19t26.5 -7h69q-23 -58 -65 -95.5t-107 -37.5q-35 0 -65.5 10t-53.5 31t-36.5 54.5t-13.5 80.5
q0 15 6 41.5t18.5 61t31.5 74.5t45 81h-266z" />
    <glyph glyph-name="uniFBA9" unicode="&#x6c1;" horiz-adv-x="1035" arabic-form="medial" 
d="M-4 0q-24 0 -39 2.5t-24 10.5t-12 23t-3 41v70q0 19 1.5 32.5t9 22.5t23 13t44.5 4h464q-29 -111 -45 -199.5t-16 -143.5q0 -50 8.5 -89.5t23.5 -69.5t35 -52.5t43 -37.5q10 124 46.5 232t99 188t149.5 126t199 46h36q28 0 44 -4t23.5 -13t9 -22.5t1.5 -32.5v-70
q0 -26 -3 -41t-12 -23t-24 -10.5t-39 -2.5h-54q-75 0 -130 -51t-90.5 -142.5t-53 -218.5t-17.5 -278q-116 37 -210.5 90t-162 117.5t-104.5 138.5t-37 153q0 40 6 91.5t17 99.5h-207z" />
    <glyph glyph-name="uniFBAB" unicode="&#x6be;" horiz-adv-x="1347" arabic-form="final" 
d="M332 219q25 111 61.5 200t79.5 158.5t91 119.5t95 82.5t91 48t81 15.5q66 0 123.5 -34t99.5 -89.5t66 -125t24 -140.5q0 -65 -25 -126t-61 -109h289q28 0 45 -4t25 -13t10.5 -22.5t2.5 -32.5v-70q0 -26 -4 -41t-13.5 -23t-25.5 -10.5t-40 -2.5h-315q18 -23 35.5 -50.5
t31 -58t22 -64t8.5 -69.5q0 -86 -32.5 -153t-83 -112.5t-111.5 -69.5t-118 -24q-42 0 -91.5 15t-100 46.5t-98.5 80t-87 115t-65.5 152.5t-34.5 192q-41 -2 -65 -17t-37.5 -40.5t-18.5 -60.5t-7 -78h-135q-23 41 -38.5 94.5t-15.5 119.5q0 58 20.5 96.5t55 62t80.5 33
t98 9.5h88zM550 0q8 -93 34.5 -165t61.5 -121.5t75 -75.5t75 -26q19 0 36 13.5t29 36t19 52.5t7 62q0 43 -13 83t-37 71.5t-58 50.5t-76 19h-153zM905 416q0 40 -9.5 77t-25.5 65.5t-35.5 45.5t-38.5 17q-28 0 -63 -31.5t-68 -86.5t-60.5 -128t-39.5 -156h146q44 0 79.5 15
t61 41t39.5 62.5t14 78.5z" />
    <glyph glyph-name="uniFBAC" unicode="&#x6be;" horiz-adv-x="1437" arabic-form="initial" 
d="M-4 0q-24 0 -39 2.5t-24 10.5t-12 23t-3 41v70q0 19 1.5 32.5t9 22.5t23 13t44.5 4h236q-32 57 -41.5 112.5t-9.5 96.5q0 48 12.5 97t34.5 95.5t52 88t65 76.5q-8 3 -24.5 7.5t-32.5 8.5q7 21 20 45t28.5 49t33.5 48.5t35 44.5q240 -48 409 -106t276 -137.5t156 -187
t49 -252.5v-16.5t-1.5 -43t-4 -90t-6.5 -155.5h-1287zM563 714q-34 0 -60 -19t-43.5 -51.5t-26.5 -74.5t-9 -87q0 -38 6 -75.5t18.5 -72.5t31.5 -64.5t44 -50.5h113q23 45 36.5 110.5t13.5 134.5q0 48 -7 93.5t-22 80t-38.5 55.5t-56.5 21zM1042 219q3 23 5 51t2 51
q0 39 -8 82t-26.5 82.5t-48 73t-71.5 53.5q13 -35 18 -78.5t5 -81.5q0 -61 -12.5 -124t-29.5 -109h166z" />
    <glyph glyph-name="uniFBAD" unicode="&#x6be;" horiz-adv-x="1188" arabic-form="medial" 
d="M-4 0q-24 0 -39 2.5t-24 10.5t-12 23t-3 41v70q0 19 1.5 32.5t9 22.5t23 13t44.5 4h210q25 111 61.5 200t79.5 158.5t91 119.5t95 82.5t91 48t81 15.5q66 0 123.5 -34t99.5 -89.5t66 -125t24 -140.5q0 -65 -25 -126t-61 -109h291q28 0 44 -4t23.5 -13t9 -22.5t1.5 -32.5
v-70q0 -26 -3 -41t-12 -23t-24 -10.5t-39 -2.5h-317q18 -23 35.5 -50.5t31 -58t22 -64t8.5 -69.5q0 -86 -32.5 -153t-83 -112.5t-111.5 -69.5t-118 -24q-42 0 -91.5 15t-100 46.5t-98.5 80t-87 115t-65.5 152.5t-34.5 192h-185zM779 416q0 40 -9.5 77t-25.5 65.5t-35.5 45.5
t-38.5 17q-28 0 -63 -31.5t-68 -86.5t-60.5 -128t-39.5 -156h146q44 0 79.5 15t61 41t39.5 62.5t14 78.5zM424 0q8 -93 34.5 -165t61.5 -121.5t75 -75.5t75 -26q19 0 36 13.5t29 36t19 52.5t7 62q0 43 -13 83t-37 71.5t-58 50.5t-76 19h-153z" />
    <glyph glyph-name="uniFBAF" unicode="&#x6d2;" horiz-adv-x="911" arabic-form="final" 
d="M943 219q28 0 44 -4t23.5 -13t9 -22.5t1.5 -32.5v-70q0 -26 -3 -41t-12 -23t-24 -10.5t-39 -2.5h-366q-119 0 -189.5 -14t-107 -34t-47.5 -41t-11 -35q0 -30 19.5 -57t75.5 -47.5t155.5 -32.5t260.5 -12q134 0 257 5t243 14.5t241 23.5t251 32l-18 -211
q-194 -35 -451.5 -57t-559.5 -22q-200 0 -335.5 27t-218 73.5t-117.5 110t-35 137.5q0 92 48 159.5t139 112t221.5 66t295.5 21.5h249z" />
    <glyph glyph-name="uniFBB1" unicode="&#x6d3;" horiz-adv-x="911" arabic-form="final" 
d="M943 219q28 0 44 -4t23.5 -13t9 -22.5t1.5 -32.5v-70q0 -26 -3 -41t-12 -23t-24 -10.5t-39 -2.5h-366q-119 0 -189.5 -14t-107 -34t-47.5 -41t-11 -35q0 -30 19.5 -57t75.5 -47.5t155.5 -32.5t260.5 -12q134 0 257 5t243 14.5t241 23.5t251 32l-18 -211
q-194 -35 -451.5 -57t-559.5 -22q-200 0 -335.5 27t-218 73.5t-117.5 110t-35 137.5q0 92 48 159.5t139 112t221.5 66t295.5 21.5h249zM532 759q-26 6 -56.5 11t-53.5 5q-45 0 -69.5 -19t-24.5 -59q0 -19 8.5 -38.5t26.5 -36t45 -27t64 -10.5h89v-158h-511v158h121
q-21 27 -35 66.5t-14 77.5q0 42 16.5 79t50 65.5t86 45t124.5 16.5q28 0 65 -2t93 -12z" />
    <glyph glyph-name="uniFBE8" unicode="&#x649;" horiz-adv-x="643" arabic-form="initial" 
d="M-4 0q-24 0 -39 2.5t-24 10.5t-12 23t-3 41v70q0 19 1.5 32.5t9 22.5t23 13t44.5 4h256v601h261v-820h-517z" />
    <glyph glyph-name="uniFBE9" unicode="&#x649;" horiz-adv-x="715" arabic-form="medial" 
d="M493 329q0 -18 -1.5 -35.5t-3.5 -34.5q49 -20 105.5 -30t117.5 -10h8q28 0 44 -4t23.5 -13t9 -22.5t1.5 -32.5v-70q0 -26 -3 -41t-12 -23t-24 -10.5t-39 -2.5h-11q-100 0 -170.5 22.5t-124.5 59.5q-35 -38 -87.5 -60t-127.5 -22h-202q-24 0 -39 2.5t-24 10.5t-12 23
t-3 41v70q0 19 1.5 32.5t9 22.5t23 13t44.5 4h113q33 0 56.5 7t38 23.5t21.5 44.5t7 70v455h261v-490z" />
    <glyph glyph-name="uniFBFD" unicode="&#x6cc;" horiz-adv-x="2074" arabic-form="final" 
d="M1105 398q0 211 112 317t345 106h309v-434q0 -56 5 -89t16 -50.5t29.5 -23t45.5 -5.5h111q28 0 44 -4t23.5 -13t9 -22.5t1.5 -32.5v-70q0 -26 -3 -41t-12 -23t-24 -10.5t-39 -2.5h-168q-56 0 -110.5 17t-97 54.5t-68.5 96.5t-26 144v299q-57 0 -102.5 -8.5t-77 -34
t-48 -71t-16.5 -119.5v-299q0 -98 -44.5 -191.5t-129 -166.5t-206.5 -117.5t-277 -44.5q-147 0 -257 28.5t-189.5 75t-132 106t-83 121t-43 120.5t-12.5 104q0 57 11 114.5t30 111.5t45.5 102t57.5 87l205 -111q-20 -27 -36.5 -61.5t-28 -72.5t-18 -77.5t-6.5 -76.5
q0 -33 7 -71.5t25.5 -77t51 -74.5t83.5 -63.5t122 -44t168 -16.5q93 0 167 23.5t125.5 62t78.5 88.5t27 103v338z" />
    <glyph glyph-name="uniFBFE" unicode="&#x6cc;" horiz-adv-x="643" arabic-form="initial" 
d="M-4 0q-24 0 -39 2.5t-24 10.5t-12 23t-3 41v70q0 19 1.5 32.5t9 22.5t23 13t44.5 4h256v601h261v-820h-517zM396 -287q0 27 10 50t27.5 40.5t40.5 27.5t50 10t50 -10t40.5 -27.5t27.5 -40.5t10 -50t-10 -50t-27.5 -40.5t-40.5 -27.5t-50 -10t-50 10t-40.5 27.5
t-27.5 40.5t-10 50zM96 -287q0 27 10 50t27.5 40.5t40.5 27.5t50 10t50 -10t40.5 -27.5t27.5 -40.5t10 -50t-10 -50t-27.5 -40.5t-40.5 -27.5t-50 -10t-50 10t-40.5 27.5t-27.5 40.5t-10 50z" />
    <glyph glyph-name="uniFBFF" unicode="&#x6cc;" horiz-adv-x="715" arabic-form="medial" 
d="M493 329q0 -18 -1.5 -35.5t-3.5 -34.5q49 -20 105.5 -30t117.5 -10h8q28 0 44 -4t23.5 -13t9 -22.5t1.5 -32.5v-70q0 -26 -3 -41t-12 -23t-24 -10.5t-39 -2.5h-11q-100 0 -170.5 22.5t-124.5 59.5q-35 -38 -87.5 -60t-127.5 -22h-202q-24 0 -39 2.5t-24 10.5t-12 23
t-3 41v70q0 19 1.5 32.5t9 22.5t23 13t44.5 4h113q33 0 56.5 7t38 23.5t21.5 44.5t7 70v455h261v-490zM385 -287q0 27 10 50t27.5 40.5t40.5 27.5t50 10t50 -10t40.5 -27.5t27.5 -40.5t10 -50t-10 -50t-27.5 -40.5t-40.5 -27.5t-50 -10t-50 10t-40.5 27.5t-27.5 40.5t-10 50
zM85 -287q0 27 10 50t27.5 40.5t40.5 27.5t50 10t50 -10t40.5 -27.5t27.5 -40.5t10 -50t-10 -50t-27.5 -40.5t-40.5 -27.5t-50 -10t-50 10t-40.5 27.5t-27.5 40.5t-10 50z" />
    <glyph glyph-name="uni064C0651" unicode="&#xfc5e;" horiz-adv-x="0" arabic-form="isolated" 
d="M118 1450q-35 0 -66 12t-53 33q-23 -20 -54 -32.5t-65 -12.5q-42 0 -76.5 13t-59 37t-38 57.5t-13.5 74.5v168h136v-172q0 -32 15 -47.5t37 -15.5q23 0 38 18.5t15 44.5v149h130v-149q0 -26 15 -44.5t37 -18.5q23 0 38 15.5t15 47.5v173h136v-169q0 -41 -14 -74.5
t-39 -57.5t-59.5 -37t-74.5 -13zM26 2009q14 0 37 5q-28 31 -46 66.5t-18 64.5q0 35 13.5 64.5t36.5 50.5t52.5 33t62.5 12t62 -9.5t50.5 -28.5t33.5 -48t12 -68q0 -59 -30.5 -105.5t-76 -78t-97 -48t-93.5 -16.5q-51 0 -100.5 16.5t-92.5 68.5l-83 -78l-74 81l169 168
q21 -30 44 -57t46 -48t46.5 -33t45.5 -12zM123 2147q0 -18 9 -40.5t29 -42.5q15 16 26.5 37t11.5 46q0 27 -11 40t-24 13q-17 0 -29 -15t-12 -38z" />
    <glyph glyph-name="uni064D0651" unicode="&#xfc5f;" horiz-adv-x="0" arabic-form="isolated" 
d="M118 1869q-35 0 -66 12t-53 33q-23 -20 -54 -32.5t-65 -12.5q-42 0 -76.5 13t-59 37t-38 57.5t-13.5 74.5v168h136v-172q0 -32 15 -47.5t37 -15.5q23 0 38 18.5t15 44.5v149h130v-149q0 -26 15 -44.5t37 -18.5q23 0 38 15.5t15 47.5v173h136v-169q0 -41 -14 -74.5
t-39 -57.5t-59.5 -37t-74.5 -13zM-251 1569h496v-119h-496v119zM-251 1759h496v-119h-496v119z" />
    <glyph glyph-name="uni064E0651" unicode="&#xfc60;" horiz-adv-x="0" arabic-form="isolated" 
d="M118 1450q-35 0 -66 12t-53 33q-23 -20 -54 -32.5t-65 -12.5q-42 0 -76.5 13t-59 37t-38 57.5t-13.5 74.5v168h136v-172q0 -32 15 -47.5t37 -15.5q23 0 38 18.5t15 44.5v149h130v-149q0 -26 15 -44.5t37 -18.5q23 0 38 15.5t15 47.5v173h136v-169q0 -41 -14 -74.5
t-39 -57.5t-59.5 -37t-74.5 -13zM-251 2011h496v-119h-496v119z" />
    <glyph glyph-name="uni064F0651" unicode="&#xfc61;" horiz-adv-x="0" arabic-form="isolated" 
d="M118 1450q-35 0 -66 12t-53 33q-23 -20 -54 -32.5t-65 -12.5q-42 0 -76.5 13t-59 37t-38 57.5t-13.5 74.5v168h136v-172q0 -32 15 -47.5t37 -15.5q23 0 38 18.5t15 44.5v149h130v-149q0 -26 15 -44.5t37 -18.5q23 0 38 15.5t15 47.5v173h136v-169q0 -41 -14 -74.5
t-39 -57.5t-59.5 -37t-74.5 -13zM-9 2009q8 0 18.5 1t21.5 4q-26 30 -43.5 66t-17.5 65q0 35 13.5 64.5t36 50.5t52.5 33t62 12q34 0 62.5 -9.5t49.5 -28.5t33 -48t12 -68q0 -59 -30.5 -105.5t-76 -78t-98.5 -48t-98 -16.5q-125 0 -240 40l26 108q62 -20 112.5 -31
t104.5 -11zM92 2147q0 -18 10.5 -40t28.5 -42q14 15 26.5 37t12.5 45q0 27 -11.5 40t-24.5 13q-17 0 -29.5 -15t-12.5 -38z" />
    <glyph glyph-name="uni06500651" unicode="&#xfc62;" horiz-adv-x="0" arabic-form="isolated" 
d="M118 1663q-35 0 -66 12t-53 33q-23 -20 -54 -32.5t-65 -12.5q-42 0 -76.5 13t-59 37t-38 57.5t-13.5 74.5v168h136v-172q0 -32 15 -47.5t37 -15.5q23 0 38 18.5t15 44.5v149h130v-149q0 -26 15 -44.5t37 -18.5q23 0 38 15.5t15 47.5v173h136v-169q0 -41 -14 -74.5
t-39 -57.5t-59.5 -37t-74.5 -13zM-251 1569h496v-119h-496v119z" />
    <glyph glyph-name="uni06510670" unicode="&#xfc63;" horiz-adv-x="0" arabic-form="isolated" 
d="M118 1450q-35 0 -66 12t-53 33q-23 -20 -54 -32.5t-65 -12.5q-42 0 -76.5 13t-59 37t-38 57.5t-13.5 74.5v168h136v-172q0 -32 15 -47.5t37 -15.5q23 0 38 18.5t15 44.5v149h130v-149q0 -26 15 -44.5t37 -18.5q23 0 38 15.5t15 47.5v173h136v-169q0 -41 -14 -74.5
t-39 -57.5t-59.5 -37t-74.5 -13zM-76 2295h146v-397h-146v397z" />
    <glyph glyph-name="uniFDF2" unicode="&#xfdf2;" horiz-adv-x="2900" arabic-form="isolated" 
d="M1555 329q0 -18 -1.5 -35.5t-3.5 -34.5q49 -20 105.5 -30t117.5 -10h210v1218h260v-1437h-473q-100 0 -170.5 22.5t-124.5 59.5q-35 -38 -87.5 -60t-127.5 -22h-326q-68 0 -117 10.5t-83.5 28t-56.5 41t-35 50.5q-65 -34 -126 -48t-128 -14t-136 18.5t-125 57.5
t-91.5 100.5t-35.5 147.5q0 76 30 137.5t80.5 110.5t115 87t134 66.5t138.5 48.5t127 34v113h258v-646q0 -36 3.5 -59.5t14 -38t29 -20.5t49.5 -6h192q33 0 56.5 7t38 23.5t21.5 44.5t7 70v1073h261v-1108zM625 673q-86 -18 -155 -42.5t-118.5 -56t-76 -71t-26.5 -87.5
q0 -39 15.5 -66t40 -43.5t55.5 -23.5t62 -7q57 0 110 16t93 42v339zM2510 1436h260v-1437h-260v1437z" />
    <glyph glyph-name="uniFDFA" unicode="&#xfdfa;" horiz-adv-x="2165" arabic-form="isolated" 
d="M2083 895q0 -29 -32 -79t-64 -64q-93 -43 -238 -43q-23 0 -47.5 1t-50.5 3q-49 -97 -78 -97q-8 0 -8 13q0 30 45 96q-85 33 -99 53q-80 -53 -102 -53q14 -288 51 -361q38 -74 172 -81l4 4q-43 31 -43 88q0 69 66 155q49 66 125 66q58 0 108 -35q50 -33 50 -63
q-53 18 -107 18q-73 0 -133 -29q-53 -29 -53 -55q0 -29 51 -80q52 -52 90 -59q37 4 139 36q103 33 137 52l-34 -76q-207 -108 -392 -108q-196 0 -243 149q-61 -133 -117 -133q-53 0 -137 90q-130 -115 -404 -115q-42 0 -77 3t-66 8q8 -68 18 -107q19 -74 48 -102
q90 -90 360 -90q232 0 338 65q31 76 57 76q8 0 8 -16q0 -30 -24 -91q12 -26 55 -26q53 0 100 24q43 136 68 136q8 0 8 -23q0 -36 -20 -88q63 -27 90 -27q15 0 16 7q2 7 -16 79l35 74q24 -74 24 -106q0 -138 -90 -138q-47 0 -98 39q-32 -53 -121 -53q-98 0 -98 53
q-38 -28 -131 -49q-103 -22 -248 -22q-199 0 -293 57q-119 72 -123 258l-45 -66q-35 -51 -53 -53q24 -44 24 -84q0 -51 -32 -86q-16 -16 -43 -16q-40 0 -125 47q-27 -64 -86 -96q-15 -8 -49 -9q-34 -2 -44 -6l-22 -8q-12 0 -12 10q0 12 49 31q31 13 50.5 22.5t29.5 16.5
l69 53q-20 38 -20 82t37 85q37 42 69 42q6 0 13 -4q38 -20 59 -20q36 0 74 47l47 86q-80 24 -113 55q-60 54 -80 174h-4q-59 -102 -162 -102q-41 0 -79 16q-33 13 -33 25q0 51 88 118q83 64 174 91l-4 34l41 68q8 -111 19 -182.5t25 -105.5q28 -66 114 -93l-27 270l39 88
l35 -368q108 -12 194 -12q213 0 363 81q25 78 39 78q8 0 8 -18q0 -17 -8 -51q73 -72 120 -72q55 0 86 88l-26 330q-152 -6 -180 151h-4q-8 -31 -15.5 -52t-13.5 -34q-22 -50 -55 -61l4 -4q143 11 143 -80q0 -60 -51 -94q-173 -121 -328 -121q-94 0 -151.5 47.5t-57.5 134.5
q0 63 33 137q-57 16 -78 88h-4q-32 -104 -113 -104q-101 0 -96 158l-55 -50q-17 -14 -80 -14q-100 0 -100 37q0 20 27 64q28 45 50 55l156 76v20l35 74l8 -246q5 -86 66 -86q30 0 60 21q30 22 34 47l-33 233l37 80l57 -330q19 -43 68 -43q47 0 47 27q0 41 -33 151l-20 66
t-21 67l27 68q82 -256 82 -321q0 -42 -21 -91q-23 -57 -51 -57q-11 0 -18 6q-15 -44 -15 -80q0 -153 187 -153q145 0 291 98q4 4 4 6q0 11 -78 25l-125 20q-25 19 27 82q122 51 131 109q1 5 1.5 12t0.5 16q0 100 -10.5 217.5t-30.5 255.5l34 115q50 -434 78 -524
q38 -117 148 -135l-10 196l43 92l16 -286q29 10 60 28.5t63 44.5l61 -43q39 -24 80 -30q22 23 55 51.5t78 60.5q105 78 144 78q37 0 84 -28q53 -32 53 -68zM2064 4q0 -100 -79 -221q-87 -131 -183 -131q-45 0 -121 33q-75 31 -75 47q0 8 10 8q8 0 55 -15q45 -16 72 -16
q138 -4 287 217l-15 45q-38 -53 -76 -53q-14 0 -26.5 7.5t-22.5 19.5t-16.5 27t-7.5 30q-2 48 31 110q34 64 57 64q26 0 65 -49q45 -56 45 -123zM1987 1309q-70 -25 -238 -105q-197 -96 -197 -125q0 -24 54 -51l-19 -49q-67 22 -67 82q0 61 53 90q131 75 238 127t194 82z
M975 915q-6 -136 -27 -149l-51 496l45 116zM1233 76l-53 -64l-99 72l-57 -74l-102 74l59 72l96 -72l56 68zM2025 860q0 14 -36 32q-34 19 -54 19q-44 0 -123 -49q-63 -39 -96 -69q7 -1 17 -1.5t24 -0.5q42 0 84 4t84 12q100 19 100 53zM1294 -248q0 -49 -4 -61
q-12 -27 -51 -27q-18 0 -29 8q-30 -32 -61 -32q-15 0 -34 17q-17 17 -25 17q-16 0 -77 -35q-59 -36 -143 -36q-90 0 -90 16q0 14 66 14q36 0 59.5 1.5t34.5 3.5q27 6 72 32q61 39 82 39q16 0 38 -16q23 -17 27 -17q31 0 37 35q4 27 23 27q8 0 8 -12q0 -5 -0.5 -9.5
t-1.5 -9.5q5 -8 22 -12q25 0 25 24q0 33 22 33zM1669 1444l-12 -45l-400 -197l9 51zM346 539q-180 -72 -180 -107q0 -20 63 -20q69 0 121 49zM664 1362q0 -66 -43 -66q-26 0 -43 17q-37 -31 -62 -31q-43 0 -43 55q0 41 6 56l13 12q-4 -76 34 -76q22 0 39 33l-4 47l19 29
l8 -62q4 -33 30 -33q27 0 23 31l-6 45l14 21q15 -39 15 -78zM387 997q-20 -9 -41 -17.5t-43 -16.5q-67 -31 -70 -50q-1 -22 52 -22q57 0 104 27zM438 -78q-8 41 -49 70q-37 28 -70 28q-28 0 -28 -24q0 -26 53 -55q49 -31 80 -31q15 0 14 12zM2005 20q-12 66 -53 66
q-31 0 -41 -51q7 -37 63 -37q27 0 31 22z" />
    <glyph glyph-name="uniFE82" unicode="&#x622;" horiz-adv-x="558" arabic-form="final" 
d="M130 1436h260v-1049q0 -50 7.5 -82.5t22 -51.5t37 -26.5t52.5 -7.5h49q28 0 44 -4t23.5 -13t9 -22.5t1.5 -32.5v-70q0 -26 -3 -41t-12 -23t-24 -10.5t-39 -2.5h-112q-84 0 -143.5 24t-98 67.5t-56.5 105t-18 135.5v1104zM-132 1678q31 34 58.5 55t53 32.5t50.5 15t52 3.5
q21 0 47 -5.5t53.5 -14.5t55.5 -20.5t54 -23.5q0 -2 4 -2q45 -18 84 -31.5t62 -13.5q18 0 32 10t24.5 25.5t18.5 34t14 34.5l128 -59q-19 -45 -38 -80t-44.5 -59t-61.5 -36t-90 -12q-23 0 -48 5t-51 13t-51.5 18t-47.5 20q-45 20 -90.5 36.5t-83.5 16.5q-10 0 -20 -2
t-21.5 -8t-26 -18t-33.5 -33z" />
    <glyph glyph-name="uniFE84" unicode="&#x623;" horiz-adv-x="558" arabic-form="final" 
d="M130 1436h260v-1049q0 -50 7.5 -82.5t22 -51.5t37 -26.5t52.5 -7.5h49q28 0 44 -4t23.5 -13t9 -22.5t1.5 -32.5v-70q0 -26 -3 -41t-12 -23t-24 -10.5t-39 -2.5h-112q-84 0 -143.5 24t-98 67.5t-56.5 105t-18 135.5v1104zM417 1844q-16 3 -41.5 6t-42.5 3q-32 0 -52 -13.5
t-20 -47.5t29.5 -59.5t91.5 -25.5h58v-121h-372v121h98q-16 20 -29.5 49t-13.5 61q0 30 11.5 58.5t36.5 51t63.5 36t91.5 13.5q23 0 49.5 -1.5t61.5 -7.5z" />
    <glyph glyph-name="uniFE86" unicode="&#x624;" horiz-adv-x="1182" arabic-form="final" 
d="M606 0q-135 0 -228 36.5t-150.5 94.5t-83 129t-25.5 139q0 91 33.5 173.5t95 145t148.5 99.5t195 37q44 0 92 -8t94 -28.5t87 -55.5t72.5 -88.5t50 -127.5t18.5 -172v-155h181q28 0 44 -4t23.5 -13t9 -22.5t1.5 -32.5v-70q0 -26 -3 -41t-12 -23t-24 -10.5t-39 -2.5h-197
q-36 -96 -105.5 -171t-164 -130t-210 -89t-243.5 -47l-24 214q92 6 170 26t139.5 50t106 67.5t69.5 79.5h-121zM747 219v96q0 103 -16.5 167.5t-43 101t-60.5 49.5t-69 13q-38 0 -73.5 -16t-62.5 -45t-43.5 -69.5t-16.5 -89.5q0 -96 58.5 -151.5t184.5 -55.5h142zM757 1358
q-26 6 -56.5 11t-53.5 5q-45 0 -69.5 -19t-24.5 -59q0 -19 8.5 -38.5t26.5 -36t45 -27t64 -10.5h89v-158h-511v158h121q-21 27 -35 66.5t-14 77.5q0 42 16.5 79t50 65.5t86 45t124.5 16.5q28 0 65 -2t93 -12z" />
    <glyph glyph-name="uniFE88" unicode="&#x625;" horiz-adv-x="558" arabic-form="final" 
d="M130 1436h260v-1049q0 -50 7.5 -82.5t22 -51.5t37 -26.5t52.5 -7.5h49q28 0 44 -4t23.5 -13t9 -22.5t1.5 -32.5v-70q0 -26 -3 -41t-12 -23t-24 -10.5t-39 -2.5h-112q-84 0 -143.5 24t-98 67.5t-56.5 105t-18 135.5v1104zM414 -274q-16 3 -41.5 6t-42.5 3q-32 0 -52 -13.5
t-20 -47.5t29.5 -59.5t91.5 -25.5h58v-121h-372v121h98q-16 20 -29.5 49t-13.5 61q0 30 11.5 58.5t36.5 51t63.5 36t91.5 13.5q23 0 49.5 -1.5t61.5 -7.5z" />
    <glyph glyph-name="uniFE8A" unicode="&#x626;" horiz-adv-x="2074" arabic-form="final" 
d="M1105 398q0 211 112 317t345 106h309v-434q0 -56 5 -89t16 -50.5t29.5 -23t45.5 -5.5h111q28 0 44 -4t23.5 -13t9 -22.5t1.5 -32.5v-70q0 -26 -3 -41t-12 -23t-24 -10.5t-39 -2.5h-168q-56 0 -110.5 17t-97 54.5t-68.5 96.5t-26 144v299q-57 0 -102.5 -8.5t-77 -34
t-48 -71t-16.5 -119.5v-299q0 -98 -44.5 -191.5t-129 -166.5t-206.5 -117.5t-277 -44.5q-147 0 -257 28.5t-189.5 75t-132 106t-83 121t-43 120.5t-12.5 104q0 57 11 114.5t30 111.5t45.5 102t57.5 87l205 -111q-20 -27 -36.5 -61.5t-28 -72.5t-18 -77.5t-6.5 -76.5
q0 -33 7 -71.5t25.5 -77t51 -74.5t83.5 -63.5t122 -44t168 -16.5q93 0 167 23.5t125.5 62t78.5 88.5t27 103v338zM394 925q-26 6 -56.5 11t-53.5 5q-45 0 -69.5 -19t-24.5 -59q0 -19 8.5 -38.5t26.5 -36t45 -27t64 -10.5h89v-158h-511v158h121q-21 27 -35 66.5t-14 77.5
q0 42 16.5 79t50 65.5t86 45t124.5 16.5q28 0 65 -2t93 -12z" />
    <glyph glyph-name="uniFE8B" unicode="&#x626;" horiz-adv-x="643" arabic-form="initial" 
d="M-4 0q-24 0 -39 2.5t-24 10.5t-12 23t-3 41v70q0 19 1.5 32.5t9 22.5t23 13t44.5 4h256v601h261v-820h-517zM613 1264q-26 6 -56.5 11t-53.5 5q-45 0 -69.5 -19t-24.5 -59q0 -19 8.5 -38.5t26.5 -36t45 -27t64 -10.5h89v-158h-511v158h121q-21 27 -35 66.5t-14 77.5
q0 42 16.5 79t50 65.5t86 45t124.5 16.5q28 0 65 -2t93 -12z" />
    <glyph glyph-name="uniFE8C" unicode="&#x626;" horiz-adv-x="715" arabic-form="medial" 
d="M493 329q0 -18 -1.5 -35.5t-3.5 -34.5q49 -20 105.5 -30t117.5 -10h8q28 0 44 -4t23.5 -13t9 -22.5t1.5 -32.5v-70q0 -26 -3 -41t-12 -23t-24 -10.5t-39 -2.5h-11q-100 0 -170.5 22.5t-124.5 59.5q-35 -38 -87.5 -60t-127.5 -22h-202q-24 0 -39 2.5t-24 10.5t-12 23
t-3 41v70q0 19 1.5 32.5t9 22.5t23 13t44.5 4h113q33 0 56.5 7t38 23.5t21.5 44.5t7 70v455h261v-490zM568 1264q-26 6 -56.5 11t-53.5 5q-45 0 -69.5 -19t-24.5 -59q0 -19 8.5 -38.5t26.5 -36t45 -27t64 -10.5h89v-158h-511v158h121q-21 27 -35 66.5t-14 77.5q0 42 16.5 79
t50 65.5t86 45t124.5 16.5q28 0 65 -2t93 -12z" />
    <glyph glyph-name="uniFE8E" unicode="&#x627;" horiz-adv-x="558" arabic-form="final" 
d="M130 1436h260v-1049q0 -50 7.5 -82.5t22 -51.5t37 -26.5t52.5 -7.5h49q28 0 44 -4t23.5 -13t9 -22.5t1.5 -32.5v-70q0 -26 -3 -41t-12 -23t-24 -10.5t-39 -2.5h-112q-84 0 -143.5 24t-98 67.5t-56.5 105t-18 135.5v1104z" />
    <glyph glyph-name="uniFE90" unicode="&#x628;" horiz-adv-x="1875" arabic-form="final" 
d="M561 0q-119 0 -207.5 14t-152 39.5t-104.5 61t-64.5 78.5t-33 92t-9.5 102q0 20 2 47t5.5 56.5t7.5 59.5t9 56l231 -20q-7 -38 -12.5 -76t-5.5 -76q0 -59 15.5 -99.5t59.5 -66.5t122.5 -37.5t204.5 -11.5h635q33 0 56.5 7t38 23.5t21.5 44.5t7 70v455h261v-490
q0 -18 -1.5 -35.5t-3.5 -34.5q49 -20 105.5 -30t117.5 -10h8q28 0 45 -4t25 -13t10.5 -22.5t2.5 -32.5v-70q0 -26 -4 -41t-13.5 -23t-25.5 -10.5t-40 -2.5h-11q-100 0 -170.5 22.5t-124.5 59.5q-35 -38 -87.5 -60t-127.5 -22h-792zM726 -287q0 27 10 50t27.5 40.5t40.5 27.5
t50 10t50 -10t40.5 -27.5t27.5 -40.5t10 -50t-10 -50t-27.5 -40.5t-40.5 -27.5t-50 -10t-50 10t-40.5 27.5t-27.5 40.5t-10 50z" />
    <glyph glyph-name="uniFE91" unicode="&#x628;" horiz-adv-x="643" arabic-form="initial" 
d="M-4 0q-24 0 -39 2.5t-24 10.5t-12 23t-3 41v70q0 19 1.5 32.5t9 22.5t23 13t44.5 4h256v601h261v-820h-517zM301 -287q0 27 10 50t27.5 40.5t40.5 27.5t50 10t50 -10t40.5 -27.5t27.5 -40.5t10 -50t-10 -50t-27.5 -40.5t-40.5 -27.5t-50 -10t-50 10t-40.5 27.5
t-27.5 40.5t-10 50z" />
    <glyph glyph-name="uniFE92" unicode="&#x628;" horiz-adv-x="715" arabic-form="medial" 
d="M493 329q0 -18 -1.5 -35.5t-3.5 -34.5q49 -20 105.5 -30t117.5 -10h8q28 0 44 -4t23.5 -13t9 -22.5t1.5 -32.5v-70q0 -26 -3 -41t-12 -23t-24 -10.5t-39 -2.5h-11q-100 0 -170.5 22.5t-124.5 59.5q-35 -38 -87.5 -60t-127.5 -22h-202q-24 0 -39 2.5t-24 10.5t-12 23
t-3 41v70q0 19 1.5 32.5t9 22.5t23 13t44.5 4h113q33 0 56.5 7t38 23.5t21.5 44.5t7 70v455h261v-490zM236 -287q0 27 10 50t27.5 40.5t40.5 27.5t50 10t50 -10t40.5 -27.5t27.5 -40.5t10 -50t-10 -50t-27.5 -40.5t-40.5 -27.5t-50 -10t-50 10t-40.5 27.5t-27.5 40.5t-10 50
z" />
    <glyph glyph-name="uniFE94" unicode="&#x629;" horiz-adv-x="1037" arabic-form="final" 
d="M615 673q-86 -18 -155 -42.5t-118.5 -56t-76 -71t-26.5 -87.5q0 -39 15.5 -66t40 -43.5t55.5 -23.5t62 -7q57 0 110 16t93 42v339zM873 343q0 -36 3.5 -59.5t14 -38t29 -20.5t49.5 -6h72q28 0 44 -4t23.5 -13t9 -22.5t1.5 -32.5v-70q0 -26 -3 -41t-12 -23t-24 -10.5
t-39 -2.5h-117q-68 0 -117 10.5t-83.5 28t-56.5 41t-35 50.5q-65 -34 -126 -48t-128 -14t-136 18.5t-125 57.5t-91.5 100.5t-35.5 147.5q0 76 30 137.5t80.5 110.5t115 87t134 66.5t138.5 48.5t127 34v113h258v-646zM601 1248q0 27 10 50t27.5 40.5t40.5 27.5t50 10t50 -10
t40.5 -27.5t27.5 -40.5t10 -50t-10 -50t-27.5 -40.5t-40.5 -27.5t-50 -10t-50 10t-40.5 27.5t-27.5 40.5t-10 50zM301 1248q0 27 10 50t27.5 40.5t40.5 27.5t50 10t50 -10t40.5 -27.5t27.5 -40.5t10 -50t-10 -50t-27.5 -40.5t-40.5 -27.5t-50 -10t-50 10t-40.5 27.5
t-27.5 40.5t-10 50z" />
    <glyph glyph-name="uniFE96" unicode="&#x62a;" horiz-adv-x="1875" arabic-form="final" 
d="M561 0q-119 0 -207.5 14t-152 39.5t-104.5 61t-64.5 78.5t-33 92t-9.5 102q0 20 2 47t5.5 56.5t7.5 59.5t9 56l231 -20q-7 -38 -12.5 -76t-5.5 -76q0 -59 15.5 -99.5t59.5 -66.5t122.5 -37.5t204.5 -11.5h635q33 0 56.5 7t38 23.5t21.5 44.5t7 70v455h261v-490
q0 -18 -1.5 -35.5t-3.5 -34.5q49 -20 105.5 -30t117.5 -10h8q28 0 45 -4t25 -13t10.5 -22.5t2.5 -32.5v-70q0 -26 -4 -41t-13.5 -23t-25.5 -10.5t-40 -2.5h-11q-100 0 -170.5 22.5t-124.5 59.5q-35 -38 -87.5 -60t-127.5 -22h-792zM892 1196q0 27 10 50t27.5 40.5t40.5 27.5
t50 10t50 -10t40.5 -27.5t27.5 -40.5t10 -50t-10 -50t-27.5 -40.5t-40.5 -27.5t-50 -10t-50 10t-40.5 27.5t-27.5 40.5t-10 50zM592 1196q0 27 10 50t27.5 40.5t40.5 27.5t50 10t50 -10t40.5 -27.5t27.5 -40.5t10 -50t-10 -50t-27.5 -40.5t-40.5 -27.5t-50 -10t-50 10
t-40.5 27.5t-27.5 40.5t-10 50z" />
    <glyph glyph-name="uniFE97" unicode="&#x62a;" horiz-adv-x="643" arabic-form="initial" 
d="M-4 0q-24 0 -39 2.5t-24 10.5t-12 23t-3 41v70q0 19 1.5 32.5t9 22.5t23 13t44.5 4h256v601h261v-820h-517zM422 1196q0 27 10 50t27.5 40.5t40.5 27.5t50 10t50 -10t40.5 -27.5t27.5 -40.5t10 -50t-10 -50t-27.5 -40.5t-40.5 -27.5t-50 -10t-50 10t-40.5 27.5
t-27.5 40.5t-10 50zM122 1196q0 27 10 50t27.5 40.5t40.5 27.5t50 10t50 -10t40.5 -27.5t27.5 -40.5t10 -50t-10 -50t-27.5 -40.5t-40.5 -27.5t-50 -10t-50 10t-40.5 27.5t-27.5 40.5t-10 50z" />
    <glyph glyph-name="uniFE98" unicode="&#x62a;" horiz-adv-x="715" arabic-form="medial" 
d="M493 329q0 -18 -1.5 -35.5t-3.5 -34.5q49 -20 105.5 -30t117.5 -10h8q28 0 44 -4t23.5 -13t9 -22.5t1.5 -32.5v-70q0 -26 -3 -41t-12 -23t-24 -10.5t-39 -2.5h-11q-100 0 -170.5 22.5t-124.5 59.5q-35 -38 -87.5 -60t-127.5 -22h-202q-24 0 -39 2.5t-24 10.5t-12 23
t-3 41v70q0 19 1.5 32.5t9 22.5t23 13t44.5 4h113q33 0 56.5 7t38 23.5t21.5 44.5t7 70v455h261v-490zM374 1196q0 27 10 50t27.5 40.5t40.5 27.5t50 10t50 -10t40.5 -27.5t27.5 -40.5t10 -50t-10 -50t-27.5 -40.5t-40.5 -27.5t-50 -10t-50 10t-40.5 27.5t-27.5 40.5t-10 50
zM74 1196q0 27 10 50t27.5 40.5t40.5 27.5t50 10t50 -10t40.5 -27.5t27.5 -40.5t10 -50t-10 -50t-27.5 -40.5t-40.5 -27.5t-50 -10t-50 10t-40.5 27.5t-27.5 40.5t-10 50z" />
    <glyph glyph-name="uniFE9A" unicode="&#x62b;" horiz-adv-x="1875" arabic-form="final" 
d="M561 0q-119 0 -207.5 14t-152 39.5t-104.5 61t-64.5 78.5t-33 92t-9.5 102q0 20 2 47t5.5 56.5t7.5 59.5t9 56l231 -20q-7 -38 -12.5 -76t-5.5 -76q0 -59 15.5 -99.5t59.5 -66.5t122.5 -37.5t204.5 -11.5h635q33 0 56.5 7t38 23.5t21.5 44.5t7 70v455h261v-490
q0 -18 -1.5 -35.5t-3.5 -34.5q49 -20 105.5 -30t117.5 -10h8q28 0 45 -4t25 -13t10.5 -22.5t2.5 -32.5v-70q0 -26 -4 -41t-13.5 -23t-25.5 -10.5t-40 -2.5h-11q-100 0 -170.5 22.5t-124.5 59.5q-35 -38 -87.5 -60t-127.5 -22h-792zM846 1196q0 27 10 50t27.5 40.5t40.5 27.5
t50 10t50 -10t40.5 -27.5t27.5 -40.5t10 -50t-10 -50t-27.5 -40.5t-40.5 -27.5t-50 -10t-50 10t-40.5 27.5t-27.5 40.5t-10 50zM546 1196q0 27 10 50t27.5 40.5t40.5 27.5t50 10t50 -10t40.5 -27.5t27.5 -40.5t10 -50t-10 -50t-27.5 -40.5t-40.5 -27.5t-50 -10t-50 10
t-40.5 27.5t-27.5 40.5t-10 50zM697 1466q0 27 10 50t27.5 40.5t40.5 27.5t50 10t50 -10t40.5 -27.5t27.5 -40.5t10 -50t-10 -50t-27.5 -40.5t-40.5 -27.5t-50 -10t-50 10t-40.5 27.5t-27.5 40.5t-10 50z" />
    <glyph glyph-name="uniFE9B" unicode="&#x62b;" horiz-adv-x="643" arabic-form="initial" 
d="M-4 0q-24 0 -39 2.5t-24 10.5t-12 23t-3 41v70q0 19 1.5 32.5t9 22.5t23 13t44.5 4h256v601h261v-820h-517zM419 1196q0 27 10 50t27.5 40.5t40.5 27.5t50 10t50 -10t40.5 -27.5t27.5 -40.5t10 -50t-10 -50t-27.5 -40.5t-40.5 -27.5t-50 -10t-50 10t-40.5 27.5
t-27.5 40.5t-10 50zM119 1196q0 27 10 50t27.5 40.5t40.5 27.5t50 10t50 -10t40.5 -27.5t27.5 -40.5t10 -50t-10 -50t-27.5 -40.5t-40.5 -27.5t-50 -10t-50 10t-40.5 27.5t-27.5 40.5t-10 50zM270 1466q0 27 10 50t27.5 40.5t40.5 27.5t50 10t50 -10t40.5 -27.5t27.5 -40.5
t10 -50t-10 -50t-27.5 -40.5t-40.5 -27.5t-50 -10t-50 10t-40.5 27.5t-27.5 40.5t-10 50z" />
    <glyph glyph-name="uniFE9C" unicode="&#x62b;" horiz-adv-x="715" arabic-form="medial" 
d="M493 329q0 -18 -1.5 -35.5t-3.5 -34.5q49 -20 105.5 -30t117.5 -10h8q28 0 44 -4t23.5 -13t9 -22.5t1.5 -32.5v-70q0 -26 -3 -41t-12 -23t-24 -10.5t-39 -2.5h-11q-100 0 -170.5 22.5t-124.5 59.5q-35 -38 -87.5 -60t-127.5 -22h-202q-24 0 -39 2.5t-24 10.5t-12 23
t-3 41v70q0 19 1.5 32.5t9 22.5t23 13t44.5 4h113q33 0 56.5 7t38 23.5t21.5 44.5t7 70v455h261v-490zM366 1196q0 27 10 50t27.5 40.5t40.5 27.5t50 10t50 -10t40.5 -27.5t27.5 -40.5t10 -50t-10 -50t-27.5 -40.5t-40.5 -27.5t-50 -10t-50 10t-40.5 27.5t-27.5 40.5t-10 50
zM66 1196q0 27 10 50t27.5 40.5t40.5 27.5t50 10t50 -10t40.5 -27.5t27.5 -40.5t10 -50t-10 -50t-27.5 -40.5t-40.5 -27.5t-50 -10t-50 10t-40.5 27.5t-27.5 40.5t-10 50zM217 1466q0 27 10 50t27.5 40.5t40.5 27.5t50 10t50 -10t40.5 -27.5t27.5 -40.5t10 -50t-10 -50
t-27.5 -40.5t-40.5 -27.5t-50 -10t-50 10t-40.5 27.5t-27.5 40.5t-10 50z" />
    <glyph glyph-name="uniFE9E" unicode="&#x62c;" horiz-adv-x="1108" arabic-form="final" 
d="M513 0q-63 0 -114 -17t-87.5 -51t-56.5 -86t-20 -121q0 -54 17.5 -103t55 -86t95 -59t137.5 -22q47 0 110.5 9t125.5 22v-203q-37 -9 -68 -16t-60.5 -11.5t-58.5 -7t-63 -2.5q-97 0 -175 19t-137.5 52.5t-102 78t-69.5 95.5t-39.5 106t-12.5 109q0 124 38.5 219.5
t109.5 160.5t170 99t221 34h199q-14 26 -25.5 64.5t-20.5 99.5q-7 47 -16.5 97.5t-31.5 92.5t-60.5 69t-103.5 27q-20 0 -49 -3t-62 -9t-68 -15.5t-68 -23.5v206q70 20 140.5 36t157.5 16q85 0 152.5 -24t116 -69t79 -108.5t41.5 -142.5q9 -59 18.5 -115.5t25 -100.5
t39.5 -70.5t62 -26.5h57q28 0 44 -4t23.5 -13t9 -22.5t1.5 -32.5v-70q0 -26 -3 -41t-12 -23t-24 -10.5t-39 -2.5h-599zM480.765 -257.15q0 24.1914 9.01953 44.7988q9.01953 20.6084 24.8047 36.2881q15.7842 15.6807 36.5303 24.6396q20.7451 8.96094 45.0986 8.96094
t45.0986 -8.96094q20.7451 -8.95898 36.5303 -24.6396q15.7842 -15.6797 24.8037 -36.2881q9.02051 -20.6074 9.02051 -44.7988q0 -24.1924 -9.02051 -44.8008q-9.01953 -20.6074 -24.8037 -36.2871q-15.7852 -15.6797 -36.5303 -24.6406
q-20.7451 -8.95898 -45.0986 -8.95898t-45.0986 8.95898q-20.7461 8.96094 -36.5303 24.6406q-15.7852 15.6797 -24.8047 36.2871q-9.01953 20.6084 -9.01953 44.8008z" />
    <glyph glyph-name="uniFE9F" unicode="&#x62c;" horiz-adv-x="1062" arabic-form="initial" 
d="M147 824q70 20 140.5 36t157.5 16t154.5 -25.5t115.5 -71t77.5 -108.5t41.5 -138q9 -62 19 -118.5t26 -100t40.5 -69.5t62.5 -26v-219h-986q-24 0 -39 2.5t-24 10.5t-12 23t-3 41v70q0 19 1.5 32.5t9 22.5t23 13t44.5 4h658q-19 33 -28 66t-15 71q-8 56 -19.5 112
t-34.5 100.5t-61 72.5t-100 28q-42 0 -108.5 -11t-140.5 -40v206zM379 -287q0 27 10 50t27.5 40.5t40.5 27.5t50 10t50 -10t40.5 -27.5t27.5 -40.5t10 -50t-10 -50t-27.5 -40.5t-40.5 -27.5t-50 -10t-50 10t-40.5 27.5t-27.5 40.5t-10 50z" />
    <glyph glyph-name="uniFEA0" unicode="&#x62c;" horiz-adv-x="1033" arabic-form="medial" 
d="M148 824q70 21 140 36.5t158 15.5q87 0 154 -25.5t115 -71t77.5 -108.5t41.5 -138q9 -62 18.5 -118.5t21.5 -100t28.5 -69.5t40.5 -26h94q28 0 44 -4t23.5 -13t9 -22.5t1.5 -32.5v-70q0 -26 -3 -41t-12 -23t-24 -10.5t-39 -2.5h-1041q-24 0 -39 2.5t-24 10.5t-12 23
t-3 41v70q0 19 1.5 32.5t9 22.5t23 13t44.5 4h658q-13 27 -25 63t-18 74q-8 56 -19.5 112t-34.5 100.5t-61 72.5t-100 28q-21 0 -51 -3t-63.5 -9t-68.5 -16t-65 -23v206zM339 -287q0 27 10 50t27.5 40.5t40.5 27.5t50 10t50 -10t40.5 -27.5t27.5 -40.5t10 -50t-10 -50
t-27.5 -40.5t-40.5 -27.5t-50 -10t-50 10t-40.5 27.5t-27.5 40.5t-10 50z" />
    <glyph glyph-name="uniFEA2" unicode="&#x62d;" horiz-adv-x="1108" arabic-form="final" 
d="M513 0q-63 0 -114 -17t-87.5 -51t-56.5 -86t-20 -121q0 -54 17.5 -103t55 -86t95 -59t137.5 -22q47 0 110.5 9t125.5 22v-203q-37 -9 -68 -16t-60.5 -11.5t-58.5 -7t-63 -2.5q-97 0 -175 19t-137.5 52.5t-102 78t-69.5 95.5t-39.5 106t-12.5 109q0 124 38.5 219.5
t109.5 160.5t170 99t221 34h199q-14 26 -25.5 64.5t-20.5 99.5q-7 47 -16.5 97.5t-31.5 92.5t-60.5 69t-103.5 27q-20 0 -49 -3t-62 -9t-68 -15.5t-68 -23.5v206q70 20 140.5 36t157.5 16q85 0 152.5 -24t116 -69t79 -108.5t41.5 -142.5q9 -59 18.5 -115.5t25 -100.5
t39.5 -70.5t62 -26.5h57q28 0 44 -4t23.5 -13t9 -22.5t1.5 -32.5v-70q0 -26 -3 -41t-12 -23t-24 -10.5t-39 -2.5h-599z" />
    <glyph glyph-name="uniFEA3" unicode="&#x62d;" horiz-adv-x="1062" arabic-form="initial" 
d="M147 824q70 20 140.5 36t157.5 16t154.5 -25.5t115.5 -71t77.5 -108.5t41.5 -138q9 -62 19 -118.5t26 -100t40.5 -69.5t62.5 -26v-219h-986q-24 0 -39 2.5t-24 10.5t-12 23t-3 41v70q0 19 1.5 32.5t9 22.5t23 13t44.5 4h658q-19 33 -28 66t-15 71q-8 56 -19.5 112
t-34.5 100.5t-61 72.5t-100 28q-42 0 -108.5 -11t-140.5 -40v206z" />
    <glyph glyph-name="uniFEA4" unicode="&#x62d;" horiz-adv-x="1033" arabic-form="medial" 
d="M148 824q70 21 140 36.5t158 15.5q87 0 154 -25.5t115 -71t77.5 -108.5t41.5 -138q9 -62 18.5 -118.5t21.5 -100t28.5 -69.5t40.5 -26h94q28 0 44 -4t23.5 -13t9 -22.5t1.5 -32.5v-70q0 -26 -3 -41t-12 -23t-24 -10.5t-39 -2.5h-1041q-24 0 -39 2.5t-24 10.5t-12 23
t-3 41v70q0 19 1.5 32.5t9 22.5t23 13t44.5 4h658q-13 27 -25 63t-18 74q-8 56 -19.5 112t-34.5 100.5t-61 72.5t-100 28q-21 0 -51 -3t-63.5 -9t-68.5 -16t-65 -23v206z" />
    <glyph glyph-name="uniFEA6" unicode="&#x62e;" horiz-adv-x="1086" arabic-form="final" 
d="M492 0q-63 0 -114 -17t-87.5 -51t-56.5 -86t-20 -121q0 -54 17.5 -103t55 -86t95 -59t137.5 -22q47 0 110.5 9t125.5 22v-203q-37 -9 -68 -16t-60.5 -11.5t-58.5 -7t-63 -2.5q-97 0 -175 19t-137.5 52.5t-102 78t-69.5 95.5t-39.5 106t-12.5 109q0 124 38.5 219.5
t109.5 160.5t170 99t221 34h199q-14 26 -25.5 64.5t-20.5 99.5q-7 47 -16.5 97.5t-31.5 92.5t-60.5 69t-103.5 27q-20 0 -49 -3t-62 -9t-68 -15.5t-68 -23.5v206q70 20 140.5 36t157.5 16q85 0 152.5 -24t116 -69t79 -108.5t41.5 -142.5q9 -59 18.5 -115.5t25 -100.5
t39.5 -70.5t62 -26.5h57q28 0 44 -4t23.5 -13t9 -22.5t1.5 -32.5v-70q0 -26 -3 -41t-12 -23t-24 -10.5t-39 -2.5h-599zM414 1196q0 27 10 50t27.5 40.5t40.5 27.5t50 10t50 -10t40.5 -27.5t27.5 -40.5t10 -50t-10 -50t-27.5 -40.5t-40.5 -27.5t-50 -10t-50 10t-40.5 27.5
t-27.5 40.5t-10 50z" />
    <glyph glyph-name="uniFEA7" unicode="&#x62e;" horiz-adv-x="1062" arabic-form="initial" 
d="M147 824q70 20 140.5 36t157.5 16t154.5 -25.5t115.5 -71t77.5 -108.5t41.5 -138q9 -62 19 -118.5t26 -100t40.5 -69.5t62.5 -26v-219h-986q-24 0 -39 2.5t-24 10.5t-12 23t-3 41v70q0 19 1.5 32.5t9 22.5t23 13t44.5 4h658q-19 33 -28 66t-15 71q-8 56 -19.5 112
t-34.5 100.5t-61 72.5t-100 28q-42 0 -108.5 -11t-140.5 -40v206zM298 1196q0 27 10 50t27.5 40.5t40.5 27.5t50 10t50 -10t40.5 -27.5t27.5 -40.5t10 -50t-10 -50t-27.5 -40.5t-40.5 -27.5t-50 -10t-50 10t-40.5 27.5t-27.5 40.5t-10 50z" />
    <glyph glyph-name="uniFEA8" unicode="&#x62e;" horiz-adv-x="1033" arabic-form="medial" 
d="M148 824q70 21 140 36.5t158 15.5q87 0 154 -25.5t115 -71t77.5 -108.5t41.5 -138q9 -62 18.5 -118.5t21.5 -100t28.5 -69.5t40.5 -26h94q28 0 44 -4t23.5 -13t9 -22.5t1.5 -32.5v-70q0 -26 -3 -41t-12 -23t-24 -10.5t-39 -2.5h-1041q-24 0 -39 2.5t-24 10.5t-12 23
t-3 41v70q0 19 1.5 32.5t9 22.5t23 13t44.5 4h658q-13 27 -25 63t-18 74q-8 56 -19.5 112t-34.5 100.5t-61 72.5t-100 28q-21 0 -51 -3t-63.5 -9t-68.5 -16t-65 -23v206zM290 1196q0 27 10 50t27.5 40.5t40.5 27.5t50 10t50 -10t40.5 -27.5t27.5 -40.5t10 -50t-10 -50
t-27.5 -40.5t-40.5 -27.5t-50 -10t-50 10t-40.5 27.5t-27.5 40.5t-10 50z" />
    <glyph glyph-name="uniFEAA" unicode="&#x62f;" horiz-adv-x="1094" arabic-form="final" 
d="M39 0v219h384q60 0 97.5 9t57.5 25.5t27 39.5t7 50q0 48 -29 104t-76.5 113.5t-107 114t-120.5 105.5l188 184q195 -161 297 -313.5t102 -289.5q0 -49 -11 -96q51 -24 110.5 -35t124.5 -11h8q28 0 44 -4t23.5 -13t9 -22.5t1.5 -32.5v-70q0 -26 -3 -41t-12 -23t-24 -10.5
t-39 -2.5h-11q-113 0 -191 29t-133 76q-54 -49 -138.5 -77t-206.5 -28h-379z" />
    <glyph glyph-name="uniFEAC" unicode="&#x630;" horiz-adv-x="1094" arabic-form="final" 
d="M39 0v219h384q60 0 97.5 9t57.5 25.5t27 39.5t7 50q0 48 -29 104t-76.5 113.5t-107 114t-120.5 105.5l188 184q195 -161 297 -313.5t102 -289.5q0 -49 -11 -96q51 -24 110.5 -35t124.5 -11h8q28 0 44 -4t23.5 -13t9 -22.5t1.5 -32.5v-70q0 -26 -3 -41t-12 -23t-24 -10.5
t-39 -2.5h-11q-113 0 -191 29t-133 76q-54 -49 -138.5 -77t-206.5 -28h-379zM337 1196q0 27 10 50t27.5 40.5t40.5 27.5t50 10t50 -10t40.5 -27.5t27.5 -40.5t10 -50t-10 -50t-27.5 -40.5t-40.5 -27.5t-50 -10t-50 10t-40.5 27.5t-27.5 40.5t-10 50z" />
    <glyph glyph-name="uniFEAE" unicode="&#x631;" horiz-adv-x="726" arabic-form="final" 
d="M-6 -191q87 17 141 43t83.5 64.5t40 91t10.5 122.5v690h260v-601h201q28 0 44 -4t23.5 -13t9 -22.5t1.5 -32.5v-70q0 -26 -3 -41t-12 -23t-24 -10.5t-39 -2.5h-215q-16 -96 -52.5 -166t-96.5 -119t-143.5 -80t-194.5 -48z" />
    <glyph glyph-name="uniFEB0" unicode="&#x632;" horiz-adv-x="726" arabic-form="final" 
d="M-6 -191q87 17 141 43t83.5 64.5t40 91t10.5 122.5v690h260v-601h201q28 0 44 -4t23.5 -13t9 -22.5t1.5 -32.5v-70q0 -26 -3 -41t-12 -23t-24 -10.5t-39 -2.5h-215q-16 -96 -52.5 -166t-96.5 -119t-143.5 -80t-194.5 -48zM267 1196q0 27 10 50t27.5 40.5t40.5 27.5t50 10
t50 -10t40.5 -27.5t27.5 -40.5t10 -50t-10 -50t-27.5 -40.5t-40.5 -27.5t-50 -10t-50 10t-40.5 27.5t-27.5 40.5t-10 50z" />
    <glyph glyph-name="uniFEB2" unicode="&#x633;" horiz-adv-x="2630" arabic-form="final" 
d="M2024 219q33 0 56.5 7t38 23.5t21.5 44.5t7 70v455h261v-490q0 -18 -1.5 -35.5t-3.5 -34.5q49 -20 105.5 -30t117.5 -10h8q28 0 44 -4t23.5 -13t9 -22.5t1.5 -32.5v-70q0 -26 -3 -41t-12 -23t-24 -10.5t-39 -2.5h-11q-100 0 -170.5 22.5t-124.5 59.5q-35 -38 -87.5 -60
t-127.5 -22h-44q-99 0 -178.5 28t-138.5 73q-35 -46 -90.5 -73.5t-140.5 -27.5h-44q-70 0 -130 14.5t-111 39.5q-20 -109 -71 -199t-129.5 -154.5t-183.5 -100t-234 -35.5q-162 0 -280.5 45.5t-196 122t-114.5 176.5t-37 210q0 51 10 106.5t28 111t42.5 108t52.5 96.5
l208 -116q-17 -27 -30.5 -60.5t-22.5 -70.5t-14 -76t-5 -75q0 -75 26 -140t73 -113t113 -75t147 -27q190 0 281 107t91 304q0 28 -5.5 69.5t-16 89t-25.5 97.5t-35 95l253 72q12 -36 25 -79t24.5 -89t20.5 -93.5t14 -92.5q98 -49 187 -49q33 0 56.5 7t38 23.5t21.5 44.5
t7 70v347h261v-382q0 -12 -0.5 -24.5t-1.5 -24.5q54 -30 107 -45.5t103 -15.5z" />
    <glyph glyph-name="uniFEB3" unicode="&#x633;" horiz-adv-x="1905" arabic-form="initial" 
d="M799 219q33 0 56.5 7t38 23.5t21.5 44.5t7 70v347h261v-382q0 -13 -0.5 -25.5t-1.5 -24.5q52 -29 114.5 -44.5t143.5 -15.5h74v601h262v-820h-319q-110 0 -194 28t-144 73q-34 -46 -89.5 -73.5t-140.5 -27.5h-44q-100 0 -180.5 28.5t-139.5 74.5q-35 -47 -91 -75
t-141 -28h-296q-24 0 -39 2.5t-24 10.5t-12 23t-3 41v70q0 19 1.5 32.5t9 22.5t23 13t44.5 4h207q33 0 56.5 7t38 23.5t21.5 44.5t7 70v257h261v-292v-23.5t-2 -23.5q55 -31 109 -47t105 -16z" />
    <glyph glyph-name="uniFEB4" unicode="&#x633;" horiz-adv-x="1997" arabic-form="medial" 
d="M1391 219q33 0 56.5 7t38 23.5t21.5 44.5t7 70v455h261v-490q0 -18 -1.5 -35.5t-3.5 -34.5q49 -20 105.5 -30t117.5 -10h8q28 0 44 -4t23.5 -13t9 -22.5t1.5 -32.5v-70q0 -26 -3 -41t-12 -23t-24 -10.5t-39 -2.5h-11q-100 0 -170.5 22.5t-124.5 59.5q-35 -38 -87.5 -60
t-127.5 -22h-44q-99 0 -178.5 28t-138.5 73q-35 -46 -90.5 -73.5t-140.5 -27.5h-44q-100 0 -180.5 28.5t-139.5 74.5q-35 -47 -91 -75t-141 -28h-296q-24 0 -39 2.5t-24 10.5t-12 23t-3 41v70q0 19 1.5 32.5t9 22.5t23 13t44.5 4h207q33 0 56.5 7t38 23.5t21.5 44.5t7 70
v257h261v-292v-23.5t-2 -23.5q55 -31 109 -47t105 -16q33 0 56.5 7t38 23.5t21.5 44.5t7 70v347h261v-382q0 -12 -0.5 -24.5t-1.5 -24.5q54 -30 107 -45.5t103 -15.5z" />
    <glyph glyph-name="uniFEB6" unicode="&#x634;" horiz-adv-x="2630" arabic-form="final" 
d="M2024 219q33 0 56.5 7t38 23.5t21.5 44.5t7 70v455h261v-490q0 -18 -1.5 -35.5t-3.5 -34.5q49 -20 105.5 -30t117.5 -10h8q28 0 44 -4t23.5 -13t9 -22.5t1.5 -32.5v-70q0 -26 -3 -41t-12 -23t-24 -10.5t-39 -2.5h-11q-100 0 -170.5 22.5t-124.5 59.5q-35 -38 -87.5 -60
t-127.5 -22h-44q-99 0 -178.5 28t-138.5 73q-35 -46 -90.5 -73.5t-140.5 -27.5h-44q-70 0 -130 14.5t-111 39.5q-20 -109 -71 -199t-129.5 -154.5t-183.5 -100t-234 -35.5q-162 0 -280.5 45.5t-196 122t-114.5 176.5t-37 210q0 51 10 106.5t28 111t42.5 108t52.5 96.5
l208 -116q-17 -27 -30.5 -60.5t-22.5 -70.5t-14 -76t-5 -75q0 -75 26 -140t73 -113t113 -75t147 -27q190 0 281 107t91 304q0 28 -5.5 69.5t-16 89t-25.5 97.5t-35 95l253 72q12 -36 25 -79t24.5 -89t20.5 -93.5t14 -92.5q98 -49 187 -49q33 0 56.5 7t38 23.5t21.5 44.5
t7 70v347h261v-382q0 -12 -0.5 -24.5t-1.5 -24.5q54 -30 107 -45.5t103 -15.5zM1726 1196q0 27 10 50t27.5 40.5t40.5 27.5t50 10t50 -10t40.5 -27.5t27.5 -40.5t10 -50t-10 -50t-27.5 -40.5t-40.5 -27.5t-50 -10t-50 10t-40.5 27.5t-27.5 40.5t-10 50zM1426 1196
q0 27 10 50t27.5 40.5t40.5 27.5t50 10t50 -10t40.5 -27.5t27.5 -40.5t10 -50t-10 -50t-27.5 -40.5t-40.5 -27.5t-50 -10t-50 10t-40.5 27.5t-27.5 40.5t-10 50zM1577 1466q0 27 10 50t27.5 40.5t40.5 27.5t50 10t50 -10t40.5 -27.5t27.5 -40.5t10 -50t-10 -50t-27.5 -40.5
t-40.5 -27.5t-50 -10t-50 10t-40.5 27.5t-27.5 40.5t-10 50z" />
    <glyph glyph-name="uniFEB7" unicode="&#x634;" horiz-adv-x="1905" arabic-form="initial" 
d="M799 219q33 0 56.5 7t38 23.5t21.5 44.5t7 70v347h261v-382q0 -13 -0.5 -25.5t-1.5 -24.5q52 -29 114.5 -44.5t143.5 -15.5h74v601h262v-820h-319q-110 0 -194 28t-144 73q-34 -46 -89.5 -73.5t-140.5 -27.5h-44q-100 0 -180.5 28.5t-139.5 74.5q-35 -47 -91 -75
t-141 -28h-296q-24 0 -39 2.5t-24 10.5t-12 23t-3 41v70q0 19 1.5 32.5t9 22.5t23 13t44.5 4h207q33 0 56.5 7t38 23.5t21.5 44.5t7 70v257h261v-292v-23.5t-2 -23.5q55 -31 109 -47t105 -16zM1055 1196q0 27 10 50t27.5 40.5t40.5 27.5t50 10t50 -10t40.5 -27.5t27.5 -40.5
t10 -50t-10 -50t-27.5 -40.5t-40.5 -27.5t-50 -10t-50 10t-40.5 27.5t-27.5 40.5t-10 50zM755 1196q0 27 10 50t27.5 40.5t40.5 27.5t50 10t50 -10t40.5 -27.5t27.5 -40.5t10 -50t-10 -50t-27.5 -40.5t-40.5 -27.5t-50 -10t-50 10t-40.5 27.5t-27.5 40.5t-10 50zM906 1466
q0 27 10 50t27.5 40.5t40.5 27.5t50 10t50 -10t40.5 -27.5t27.5 -40.5t10 -50t-10 -50t-27.5 -40.5t-40.5 -27.5t-50 -10t-50 10t-40.5 27.5t-27.5 40.5t-10 50z" />
    <glyph glyph-name="uniFEB8" unicode="&#x634;" horiz-adv-x="1997" arabic-form="medial" 
d="M1391 219q33 0 56.5 7t38 23.5t21.5 44.5t7 70v455h261v-490q0 -18 -1.5 -35.5t-3.5 -34.5q49 -20 105.5 -30t117.5 -10h8q28 0 44 -4t23.5 -13t9 -22.5t1.5 -32.5v-70q0 -26 -3 -41t-12 -23t-24 -10.5t-39 -2.5h-11q-100 0 -170.5 22.5t-124.5 59.5q-35 -38 -87.5 -60
t-127.5 -22h-44q-99 0 -178.5 28t-138.5 73q-35 -46 -90.5 -73.5t-140.5 -27.5h-44q-100 0 -180.5 28.5t-139.5 74.5q-35 -47 -91 -75t-141 -28h-296q-24 0 -39 2.5t-24 10.5t-12 23t-3 41v70q0 19 1.5 32.5t9 22.5t23 13t44.5 4h207q33 0 56.5 7t38 23.5t21.5 44.5t7 70
v257h261v-292v-23.5t-2 -23.5q55 -31 109 -47t105 -16q33 0 56.5 7t38 23.5t21.5 44.5t7 70v347h261v-382q0 -12 -0.5 -24.5t-1.5 -24.5q54 -30 107 -45.5t103 -15.5zM1058 1196q0 27 10 50t27.5 40.5t40.5 27.5t50 10t50 -10t40.5 -27.5t27.5 -40.5t10 -50t-10 -50
t-27.5 -40.5t-40.5 -27.5t-50 -10t-50 10t-40.5 27.5t-27.5 40.5t-10 50zM758 1196q0 27 10 50t27.5 40.5t40.5 27.5t50 10t50 -10t40.5 -27.5t27.5 -40.5t10 -50t-10 -50t-27.5 -40.5t-40.5 -27.5t-50 -10t-50 10t-40.5 27.5t-27.5 40.5t-10 50zM909 1466q0 27 10 50
t27.5 40.5t40.5 27.5t50 10t50 -10t40.5 -27.5t27.5 -40.5t10 -50t-10 -50t-27.5 -40.5t-40.5 -27.5t-50 -10t-50 10t-40.5 27.5t-27.5 40.5t-10 50z" />
    <glyph glyph-name="uniFEBA" unicode="&#x635;" horiz-adv-x="2832" arabic-form="final" 
d="M990 199q0 28 -5.5 69.5t-16 89t-25.5 97.5t-35 95l253 72q13 -36 26 -80.5t25 -92t21 -96t13 -93.5q50 -23 104.5 -31t103.5 -10q24 63 61.5 137.5t88 149.5t114.5 145t140 124t165 86.5t190 32.5q117 0 202 -40t140.5 -110t82 -165t26.5 -205v-155h172q28 0 44 -4
t23.5 -13t9 -22.5t1.5 -32.5v-70q0 -26 -3 -41t-12 -23t-24 -10.5t-39 -2.5h-1280q-99 0 -178.5 12.5t-141.5 40.5q-20 -109 -71 -198.5t-129.5 -154t-183.5 -100t-234 -35.5q-162 0 -280.5 45.5t-196 122t-114.5 176.5t-37 210q0 51 10 106.5t28 111t42.5 108t52.5 96.5
l208 -116q-17 -27 -30.5 -60.5t-22.5 -70.5t-14 -76t-5 -75q0 -75 26 -140t73 -113t113 -75t147 -27q190 0 281 107t91 304zM2407 353q0 93 -19 156t-51 100.5t-76 53.5t-93 16q-67 0 -135.5 -37t-130 -100t-112.5 -146.5t-84 -176.5h701v134z" />
    <glyph glyph-name="uniFEBB" unicode="&#x635;" horiz-adv-x="2014" arabic-form="initial" 
d="M460 329q0 -27 -3 -54q54 -32 117.5 -43t119.5 -13q24 63 61.5 137.5t88 149.5t114.5 145t140 124t165 86.5t190 32.5q117 0 202 -40t140.5 -110t82 -165t26.5 -205v-374h-1108q-134 0 -233.5 23.5t-165.5 78.5q-35 -46 -91 -74t-141 -28h-169q-24 0 -39 2.5t-24 10.5
t-12 23t-3 41v70q0 19 1.5 32.5t9 22.5t23 13t44.5 4h80q33 0 56.5 7t38 23.5t21.5 44.5t7 70v257h261v-292zM1645 353q0 93 -19 156t-51 100.5t-76 53.5t-93 16q-67 0 -135.5 -37t-130 -100t-112.5 -146.5t-84 -176.5h701v134z" />
    <glyph glyph-name="uniFEBC" unicode="&#x635;" horiz-adv-x="2078" arabic-form="medial" 
d="M460 329q0 -27 -3 -54q54 -32 117.5 -43t119.5 -13q24 63 61.5 137.5t88 149.5t114.5 145t140 124t165 86.5t190 32.5q117 0 202 -40t140.5 -110t82 -165t26.5 -205v-155h178q28 0 44 -4t23.5 -13t9 -22.5t1.5 -32.5v-70q0 -26 -3 -41t-12 -23t-24 -10.5t-39 -2.5h-1286
q-134 0 -233.5 23.5t-165.5 78.5q-35 -46 -91 -74t-141 -28h-169q-24 0 -39 2.5t-24 10.5t-12 23t-3 41v70q0 19 1.5 32.5t9 22.5t23 13t44.5 4h80q33 0 56.5 7t38 23.5t21.5 44.5t7 70v257h261v-292zM1645 353q0 93 -19 156t-51 100.5t-76 53.5t-93 16q-67 0 -135.5 -37
t-130 -100t-112.5 -146.5t-84 -176.5h701v134z" />
    <glyph glyph-name="uniFEBE" unicode="&#x636;" horiz-adv-x="2832" arabic-form="final" 
d="M990 199q0 28 -5.5 69.5t-16 89t-25.5 97.5t-35 95l253 72q13 -36 26 -80.5t25 -92t21 -96t13 -93.5q50 -23 104.5 -31t103.5 -10q24 63 61.5 137.5t88 149.5t114.5 145t140 124t165 86.5t190 32.5q117 0 202 -40t140.5 -110t82 -165t26.5 -205v-155h172q28 0 44 -4
t23.5 -13t9 -22.5t1.5 -32.5v-70q0 -26 -3 -41t-12 -23t-24 -10.5t-39 -2.5h-1280q-99 0 -178.5 12.5t-141.5 40.5q-20 -109 -71 -198.5t-129.5 -154t-183.5 -100t-234 -35.5q-162 0 -280.5 45.5t-196 122t-114.5 176.5t-37 210q0 51 10 106.5t28 111t42.5 108t52.5 96.5
l208 -116q-17 -27 -30.5 -60.5t-22.5 -70.5t-14 -76t-5 -75q0 -75 26 -140t73 -113t113 -75t147 -27q190 0 281 107t91 304zM2407 353q0 93 -19 156t-51 100.5t-76 53.5t-93 16q-67 0 -135.5 -37t-130 -100t-112.5 -146.5t-84 -176.5h701v134zM1824 1196q0 27 10 50
t27.5 40.5t40.5 27.5t50 10t50 -10t40.5 -27.5t27.5 -40.5t10 -50t-10 -50t-27.5 -40.5t-40.5 -27.5t-50 -10t-50 10t-40.5 27.5t-27.5 40.5t-10 50z" />
    <glyph glyph-name="uniFEBF" unicode="&#x636;" horiz-adv-x="2014" arabic-form="initial" 
d="M460 329q0 -27 -3 -54q54 -32 117.5 -43t119.5 -13q24 63 61.5 137.5t88 149.5t114.5 145t140 124t165 86.5t190 32.5q117 0 202 -40t140.5 -110t82 -165t26.5 -205v-374h-1108q-134 0 -233.5 23.5t-165.5 78.5q-35 -46 -91 -74t-141 -28h-169q-24 0 -39 2.5t-24 10.5
t-12 23t-3 41v70q0 19 1.5 32.5t9 22.5t23 13t44.5 4h80q33 0 56.5 7t38 23.5t21.5 44.5t7 70v257h261v-292zM1645 353q0 93 -19 156t-51 100.5t-76 53.5t-93 16q-67 0 -135.5 -37t-130 -100t-112.5 -146.5t-84 -176.5h701v134zM1066 1196q0 27 10 50t27.5 40.5t40.5 27.5
t50 10t50 -10t40.5 -27.5t27.5 -40.5t10 -50t-10 -50t-27.5 -40.5t-40.5 -27.5t-50 -10t-50 10t-40.5 27.5t-27.5 40.5t-10 50z" />
    <glyph glyph-name="uniFEC0" unicode="&#x636;" horiz-adv-x="2078" arabic-form="medial" 
d="M460 329q0 -27 -3 -54q54 -32 117.5 -43t119.5 -13q24 63 61.5 137.5t88 149.5t114.5 145t140 124t165 86.5t190 32.5q117 0 202 -40t140.5 -110t82 -165t26.5 -205v-155h178q28 0 44 -4t23.5 -13t9 -22.5t1.5 -32.5v-70q0 -26 -3 -41t-12 -23t-24 -10.5t-39 -2.5h-1286
q-134 0 -233.5 23.5t-165.5 78.5q-35 -46 -91 -74t-141 -28h-169q-24 0 -39 2.5t-24 10.5t-12 23t-3 41v70q0 19 1.5 32.5t9 22.5t23 13t44.5 4h80q33 0 56.5 7t38 23.5t21.5 44.5t7 70v257h261v-292zM1645 353q0 93 -19 156t-51 100.5t-76 53.5t-93 16q-67 0 -135.5 -37
t-130 -100t-112.5 -146.5t-84 -176.5h701v134zM1051 1196q0 27 10 50t27.5 40.5t40.5 27.5t50 10t50 -10t40.5 -27.5t27.5 -40.5t10 -50t-10 -50t-27.5 -40.5t-40.5 -27.5t-50 -10t-50 10t-40.5 27.5t-27.5 40.5t-10 50z" />
    <glyph glyph-name="uniFEC2" unicode="&#x637;" horiz-adv-x="1629" arabic-form="final" 
d="M-10 219h261q16 41 37.5 87t48.5 95v1036h260v-709q86 74 189.5 120t226.5 46q115 0 199.5 -40t140 -110t82.5 -165t27 -205v-155h171q28 0 44 -4t23.5 -13t9 -22.5t1.5 -32.5v-70q0 -26 -3 -41t-12 -23t-24 -10.5t-39 -2.5h-1643v219zM1204 353q0 93 -19 156t-51 100.5
t-76 53.5t-93 16q-67 0 -135.5 -37t-130 -100t-112.5 -146.5t-84 -176.5h701v134z" />
    <glyph glyph-name="uniFEC3" unicode="&#x637;" horiz-adv-x="1530" arabic-form="initial" 
d="M-4 0q-24 0 -39 2.5t-24 10.5t-12 23t-3 41v70q0 19 1.5 32.5t9 22.5t23 13t44.5 4h213q16 41 37.5 87t48.5 95v1035h260v-708q86 74 189.5 120t226.5 46q115 0 199.5 -40t140 -110t82.5 -165t27 -205v-374h-1424zM1162 353q0 93 -19 156t-51 100.5t-76 53.5t-93 16
q-67 0 -135.5 -37t-130 -100t-112.5 -146.5t-84 -176.5h701v134z" />
    <glyph glyph-name="uniFEC4" unicode="&#x637;" horiz-adv-x="1586" arabic-form="medial" 
d="M-4 0q-24 0 -39 2.5t-24 10.5t-12 23t-3 41v70q0 19 1.5 32.5t9 22.5t23 13t44.5 4h213q16 41 37.5 87t48.5 95v1035h260v-708q86 74 189.5 120t226.5 46q115 0 199.5 -40t140 -110t82.5 -165t27 -205v-155h170q28 0 44 -4t23.5 -13t9 -22.5t1.5 -32.5v-70q0 -26 -3 -41
t-12 -23t-24 -10.5t-39 -2.5h-1594zM1163 353q0 93 -19 156t-51 100.5t-76 53.5t-93 16q-67 0 -135.5 -37t-130 -100t-112.5 -146.5t-84 -176.5h701v134z" />
    <glyph glyph-name="uniFEC6" unicode="&#x638;" horiz-adv-x="1629" arabic-form="final" 
d="M-10 219h261q16 41 37.5 87t48.5 95v1036h260v-709q86 74 189.5 120t226.5 46q115 0 199.5 -40t140 -110t82.5 -165t27 -205v-155h171q28 0 44 -4t23.5 -13t9 -22.5t1.5 -32.5v-70q0 -26 -3 -41t-12 -23t-24 -10.5t-39 -2.5h-1643v219zM1204 353q0 93 -19 156t-51 100.5
t-76 53.5t-93 16q-67 0 -135.5 -37t-130 -100t-112.5 -146.5t-84 -176.5h701v134zM869 1196q0 27 10 50t27.5 40.5t40.5 27.5t50 10t50 -10t40.5 -27.5t27.5 -40.5t10 -50t-10 -50t-27.5 -40.5t-40.5 -27.5t-50 -10t-50 10t-40.5 27.5t-27.5 40.5t-10 50z" />
    <glyph glyph-name="uniFEC7" unicode="&#x638;" horiz-adv-x="1530" arabic-form="initial" 
d="M-4 0q-24 0 -39 2.5t-24 10.5t-12 23t-3 41v70q0 19 1.5 32.5t9 22.5t23 13t44.5 4h213q16 41 37.5 87t48.5 95v1035h260v-708q86 74 189.5 120t226.5 46q115 0 199.5 -40t140 -110t82.5 -165t27 -205v-374h-1424zM1162 353q0 93 -19 156t-51 100.5t-76 53.5t-93 16
q-67 0 -135.5 -37t-130 -100t-112.5 -146.5t-84 -176.5h701v134zM827 1196q0 27 10 50t27.5 40.5t40.5 27.5t50 10t50 -10t40.5 -27.5t27.5 -40.5t10 -50t-10 -50t-27.5 -40.5t-40.5 -27.5t-50 -10t-50 10t-40.5 27.5t-27.5 40.5t-10 50z" />
    <glyph glyph-name="uniFEC8" unicode="&#x638;" horiz-adv-x="1586" arabic-form="medial" 
d="M-4 0q-24 0 -39 2.5t-24 10.5t-12 23t-3 41v70q0 19 1.5 32.5t9 22.5t23 13t44.5 4h213q16 41 37.5 87t48.5 95v1035h260v-708q86 74 189.5 120t226.5 46q115 0 199.5 -40t140 -110t82.5 -165t27 -205v-155h170q28 0 44 -4t23.5 -13t9 -22.5t1.5 -32.5v-70q0 -26 -3 -41
t-12 -23t-24 -10.5t-39 -2.5h-1594zM1163 353q0 93 -19 156t-51 100.5t-76 53.5t-93 16q-67 0 -135.5 -37t-130 -100t-112.5 -146.5t-84 -176.5h701v134zM825 1196q0 27 10 50t27.5 40.5t40.5 27.5t50 10t50 -10t40.5 -27.5t27.5 -40.5t10 -50t-10 -50t-27.5 -40.5
t-40.5 -27.5t-50 -10t-50 10t-40.5 27.5t-27.5 40.5t-10 50z" />
    <glyph glyph-name="uniFECA" unicode="&#x639;" horiz-adv-x="1126" arabic-form="final" 
d="M382 247q-29 26 -61 58t-61.5 64.5t-55 63.5t-42.5 54q-31 43 -46 61.5t-23 28.5q4 21 13.5 49.5t21.5 56.5t26.5 50.5t29.5 31.5q33 17 80 36.5t105.5 36t127 27.5t143.5 11q61 0 123.5 -12t113.5 -37.5t83.5 -66.5t32.5 -98q0 -32 -8 -73t-32 -91t-68 -111t-116 -133
q24 -7 56 -13.5t68 -11t75 -7.5t77 -3h85q28 0 44 -4t23.5 -13t9 -22.5t1.5 -32.5v-70q0 -26 -3 -41t-12 -23t-24 -10.5t-39 -2.5h-138q-78 0 -146.5 12t-125.5 29t-101 36.5t-73 34.5q-66 -28 -121 -67.5t-95 -89t-62 -107.5t-22 -123q0 -50 16.5 -99t52 -87t91 -61.5
t134.5 -23.5q47 0 110.5 9t125.5 22v-203q-37 -9 -68 -16t-59.5 -11.5t-56 -7t-58.5 -2.5q-142 0 -244.5 42t-169 108t-98.5 148t-32 163q0 83 26.5 156.5t77 140.5t123 127.5t165.5 116.5zM747 575q0 22 -13 41t-37 33t-57 22.5t-73 8.5q-24 0 -54.5 -4t-63 -12t-65.5 -19
t-61 -24q16 -26 44.5 -64.5t62.5 -79t70.5 -78.5t69.5 -63q49 36 82.5 70.5t54.5 66t30.5 58t9.5 44.5z" />
    <glyph glyph-name="uniFECB" unicode="&#x639;" horiz-adv-x="1014" arabic-form="initial" 
d="M827 605q-16 5 -40.5 11.5t-53 12.5t-59.5 10t-60 4q-32 0 -66 -9t-62.5 -30.5t-46.5 -58.5t-18 -93q0 -51 16.5 -93.5t47 -73.5t72.5 -48.5t93 -17.5h284v-219h-938q-24 0 -39 2.5t-24 10.5t-12 23t-3 41v70q0 19 1.5 32.5t9 22.5t23 13t44.5 4h222q-9 24 -17 51.5
t-14 55.5t-9.5 54t-3.5 48q0 89 32.5 169t91 140t140 95t179.5 35q23 0 55 -2.5t66 -7t65 -11t51 -14.5z" />
    <glyph glyph-name="uniFECC" unicode="&#x639;" horiz-adv-x="1162" arabic-form="medial" 
d="M1244 77q0 -26 -3 -41t-12 -23t-24 -10.5t-39 -2.5h-154q-75 0 -142.5 11t-124.5 27.5t-101.5 35.5t-74.5 34q-41 -21 -90.5 -40.5t-105.5 -34.5t-118 -24t-128 -9h-131q-24 0 -39 2.5t-24 10.5t-12 23t-3 41v70q0 19 1.5 32.5t9 22.5t23 13t44.5 4h144q81 0 146.5 10
t100.5 23q-29 25 -58.5 56.5t-57 63.5t-51 62t-40.5 53q-27 37 -44 59t-25 31q4 21 13.5 49.5t21.5 56.5t26.5 50.5t29.5 31.5q33 17 80 36.5t105.5 36t127 27.5t143.5 11q61 0 123.5 -12t113.5 -37.5t83.5 -66.5t32.5 -98q0 -30 -9 -70.5t-34 -92t-68.5 -113t-112.5 -132.5
q24 -7 56 -13.5t68.5 -11t76 -7.5t77.5 -3h101q28 0 44 -4t23.5 -13t9 -22.5t1.5 -32.5v-70zM588 336q49 36 82.5 70.5t54.5 66t30.5 58t9.5 44.5q0 22 -13 41t-37 33t-57 22.5t-73 8.5q-24 0 -54.5 -4t-63 -12t-64.5 -19t-60 -24q15 -26 43 -64.5t62 -79t70.5 -78.5
t69.5 -63z" />
    <glyph glyph-name="uniFECE" unicode="&#x63a;" horiz-adv-x="1126" arabic-form="final" 
d="M382 247q-29 26 -61 58t-61.5 64.5t-55 63.5t-42.5 54q-31 43 -46 61.5t-23 28.5q4 21 13.5 49.5t21.5 56.5t26.5 50.5t29.5 31.5q33 17 80 36.5t105.5 36t127 27.5t143.5 11q61 0 123.5 -12t113.5 -37.5t83.5 -66.5t32.5 -98q0 -32 -8 -73t-32 -91t-68 -111t-116 -133
q24 -7 56 -13.5t68 -11t75 -7.5t77 -3h85q28 0 44 -4t23.5 -13t9 -22.5t1.5 -32.5v-70q0 -26 -3 -41t-12 -23t-24 -10.5t-39 -2.5h-138q-78 0 -146.5 12t-125.5 29t-101 36.5t-73 34.5q-66 -28 -121 -67.5t-95 -89t-62 -107.5t-22 -123q0 -50 16.5 -99t52 -87t91 -61.5
t134.5 -23.5q47 0 110.5 9t125.5 22v-203q-37 -9 -68 -16t-59.5 -11.5t-56 -7t-58.5 -2.5q-142 0 -244.5 42t-169 108t-98.5 148t-32 163q0 83 26.5 156.5t77 140.5t123 127.5t165.5 116.5zM747 575q0 22 -13 41t-37 33t-57 22.5t-73 8.5q-24 0 -54.5 -4t-63 -12t-65.5 -19
t-61 -24q16 -26 44.5 -64.5t62.5 -79t70.5 -78.5t69.5 -63q49 36 82.5 70.5t54.5 66t30.5 58t9.5 44.5zM437 1196q0 27 10 50t27.5 40.5t40.5 27.5t50 10t50 -10t40.5 -27.5t27.5 -40.5t10 -50t-10 -50t-27.5 -40.5t-40.5 -27.5t-50 -10t-50 10t-40.5 27.5t-27.5 40.5
t-10 50z" />
    <glyph glyph-name="uniFECF" unicode="&#x63a;" horiz-adv-x="1014" arabic-form="initial" 
d="M827 605q-16 5 -40.5 11.5t-53 12.5t-59.5 10t-60 4q-32 0 -66 -9t-62.5 -30.5t-46.5 -58.5t-18 -93q0 -51 16.5 -93.5t47 -73.5t72.5 -48.5t93 -17.5h284v-219h-938q-24 0 -39 2.5t-24 10.5t-12 23t-3 41v70q0 19 1.5 32.5t9 22.5t23 13t44.5 4h222q-9 24 -17 51.5
t-14 55.5t-9.5 54t-3.5 48q0 89 32.5 169t91 140t140 95t179.5 35q23 0 55 -2.5t66 -7t65 -11t51 -14.5zM449 1196q0 27 10 50t27.5 40.5t40.5 27.5t50 10t50 -10t40.5 -27.5t27.5 -40.5t10 -50t-10 -50t-27.5 -40.5t-40.5 -27.5t-50 -10t-50 10t-40.5 27.5t-27.5 40.5
t-10 50z" />
    <glyph glyph-name="uniFED0" unicode="&#x63a;" horiz-adv-x="1162" arabic-form="medial" 
d="M1244 77q0 -26 -3 -41t-12 -23t-24 -10.5t-39 -2.5h-154q-75 0 -142.5 11t-124.5 27.5t-101.5 35.5t-74.5 34q-41 -21 -90.5 -40.5t-105.5 -34.5t-118 -24t-128 -9h-131q-24 0 -39 2.5t-24 10.5t-12 23t-3 41v70q0 19 1.5 32.5t9 22.5t23 13t44.5 4h144q81 0 146.5 10
t100.5 23q-29 25 -58.5 56.5t-57 63.5t-51 62t-40.5 53q-27 37 -44 59t-25 31q4 21 13.5 49.5t21.5 56.5t26.5 50.5t29.5 31.5q33 17 80 36.5t105.5 36t127 27.5t143.5 11q61 0 123.5 -12t113.5 -37.5t83.5 -66.5t32.5 -98q0 -30 -9 -70.5t-34 -92t-68.5 -113t-112.5 -132.5
q24 -7 56 -13.5t68.5 -11t76 -7.5t77.5 -3h101q28 0 44 -4t23.5 -13t9 -22.5t1.5 -32.5v-70zM588 336q49 36 82.5 70.5t54.5 66t30.5 58t9.5 44.5q0 22 -13 41t-37 33t-57 22.5t-73 8.5q-24 0 -54.5 -4t-63 -12t-64.5 -19t-60 -24q15 -26 43 -64.5t62 -79t70.5 -78.5
t69.5 -63zM446 1196q0 27 10 50t27.5 40.5t40.5 27.5t50 10t50 -10t40.5 -27.5t27.5 -40.5t10 -50t-10 -50t-27.5 -40.5t-40.5 -27.5t-50 -10t-50 10t-40.5 27.5t-27.5 40.5t-10 50z" />
    <glyph glyph-name="uniFED2" unicode="&#x641;" horiz-adv-x="2161" arabic-form="final" 
d="M561 0q-119 0 -207.5 14t-152 39.5t-104.5 61t-64.5 78.5t-33 92t-9.5 102q0 20 2 47t5.5 56.5t7.5 59.5t9 56l231 -20q-7 -38 -12.5 -76t-5.5 -76q0 -59 15.5 -99.5t59.5 -66.5t122.5 -37.5t204.5 -11.5h563q-20 26 -36 56t-27 60t-17 58t-6 49q0 84 33 159.5t95 133
t149.5 91t197.5 33.5q97 0 171.5 -30t125.5 -81.5t77 -120.5t26 -146q0 -32 -6.5 -68t-16 -71t-20.5 -67t-20 -56h243q28 0 45 -4t25 -13t10.5 -22.5t2.5 -32.5v-70q0 -26 -4 -41t-13.5 -23t-25.5 -10.5t-40 -2.5h-139q-51 0 -105.5 3t-107 7.5t-100.5 10t-87 11.5
q-44 -5 -105.5 -9.5t-132 -8t-146 -6t-145.5 -4.5t-131 -3t-104 -1h-297zM1355 464q0 -56 20.5 -101t55.5 -77t82 -49.5t101 -17.5h38q11 18 23 43.5t22 55t16.5 62.5t6.5 68q0 51 -14.5 90.5t-39 66t-56 40t-65.5 13.5q-35 0 -69 -11.5t-61 -35.5t-43.5 -60.5t-16.5 -86.5z
M1432 1196q0 27 10 50t27.5 40.5t40.5 27.5t50 10t50 -10t40.5 -27.5t27.5 -40.5t10 -50t-10 -50t-27.5 -40.5t-40.5 -27.5t-50 -10t-50 10t-40.5 27.5t-27.5 40.5t-10 50z" />
    <glyph glyph-name="uniFED3" unicode="&#x641;" horiz-adv-x="1229" arabic-form="initial" 
d="M252 426q0 91 34 170t94.5 137.5t144 92t181.5 33.5q97 0 173.5 -29t129.5 -84t81.5 -134.5t28.5 -179.5v-432h-1119q-24 0 -40 2.5t-25.5 10.5t-13.5 23t-4 41v70q0 19 2.5 32.5t10.5 22.5t24.5 13t45.5 4h307q-23 37 -39 93t-16 114zM860 219v172q0 73 -15 122
t-39.5 78.5t-56.5 42t-66 12.5q-38 0 -71.5 -16t-58 -44.5t-39 -68t-14.5 -87.5q0 -47 16 -86t45.5 -67t72 -43t96.5 -15h130zM585 1196q0 27 10 50t27.5 40.5t40.5 27.5t50 10t50 -10t40.5 -27.5t27.5 -40.5t10 -50t-10 -50t-27.5 -40.5t-40.5 -27.5t-50 -10t-50 10
t-40.5 27.5t-27.5 40.5t-10 50z" />
    <glyph glyph-name="uniFED4" unicode="&#x641;" horiz-adv-x="1224" arabic-form="medial" 
d="M474 1196q0 27 10 50t27.5 40.5t40.5 27.5t50 10t50 -10t40.5 -27.5t27.5 -40.5t10 -50t-10 -50t-27.5 -40.5t-40.5 -27.5t-50 -10t-50 10t-40.5 27.5t-27.5 40.5t-10 50zM1085 0q-113 0 -216.5 9t-181.5 23q-57 -8 -124.5 -14t-139.5 -9.5t-145 -6t-142 -2.5h-137
q-24 0 -40 2.5t-25.5 10.5t-13.5 23t-4 41v70q0 19 2.5 32.5t10.5 22.5t24.5 13t45.5 4h250q-20 26 -35 56.5t-25 60.5t-15 57.5t-5 48.5q0 84 33 159.5t95 133t149.5 91t197.5 33.5q97 0 172 -30t126 -81.5t77 -120.5t26 -146q0 -33 -6.5 -69t-16 -71t-20.5 -66.5
t-21 -55.5h242q28 0 45 -4t25 -13t10.5 -22.5t2.5 -32.5v-70q0 -26 -4 -41t-13.5 -23t-25.5 -10.5t-40 -2.5h-138zM418 464q0 -56 20.5 -101t55.5 -77t82 -49.5t101 -17.5h39q10 19 22 45t22 56t16.5 63t6.5 65q0 51 -14.5 90.5t-39 66t-56 40t-64.5 13.5q-35 0 -69.5 -11.5
t-61.5 -35.5t-43.5 -60.5t-16.5 -86.5z" />
    <glyph glyph-name="uniFED6" unicode="&#x642;" horiz-adv-x="1592" arabic-form="final" 
d="M963 0q-126 0 -213 37t-141.5 96t-79 133t-24.5 148q0 92 33 172.5t94.5 140t148.5 93.5t195 34q44 0 92 -8t94.5 -28.5t88 -55.5t73 -88.5t50 -127.5t18.5 -172v-155h199q28 0 45 -4t25 -13t10.5 -22.5t2.5 -32.5v-70q0 -26 -4 -41t-13.5 -23t-25.5 -10.5t-40 -2.5h-201
q-24 -143 -86.5 -257t-157 -194t-218 -123t-269.5 -43q-165 0 -290.5 41t-209.5 114.5t-126.5 175.5t-42.5 224q0 50 10 105.5t28 111t42 108.5t53 97l208 -117q-17 -26 -30.5 -59.5t-22.5 -71t-14 -76t-5 -75.5q0 -79 26 -145.5t78 -114.5t130 -75t181 -27q88 0 166 29
t139 82t101.5 127t52.5 163h-170zM1133 219v96q0 103 -16.5 167.5t-43 101t-60.5 49.5t-69 13q-38 0 -71.5 -16t-58.5 -45t-39.5 -69.5t-14.5 -89.5q0 -42 13 -80t41.5 -66t73 -44.5t107.5 -16.5h138zM982 1196q0 27 10 50t27.5 40.5t40.5 27.5t50 10t50 -10t40.5 -27.5
t27.5 -40.5t10 -50t-10 -50t-27.5 -40.5t-40.5 -27.5t-50 -10t-50 10t-40.5 27.5t-27.5 40.5t-10 50zM682 1196q0 27 10 50t27.5 40.5t40.5 27.5t50 10t50 -10t40.5 -27.5t27.5 -40.5t10 -50t-10 -50t-27.5 -40.5t-40.5 -27.5t-50 -10t-50 10t-40.5 27.5t-27.5 40.5t-10 50z
" />
    <glyph glyph-name="uniFED7" unicode="&#x642;" horiz-adv-x="1229" arabic-form="initial" 
d="M252 426q0 91 34 170t94.5 137.5t144 92t181.5 33.5q97 0 173.5 -29t129.5 -84t81.5 -134.5t28.5 -179.5v-432h-1119q-24 0 -40 2.5t-25.5 10.5t-13.5 23t-4 41v70q0 19 2.5 32.5t10.5 22.5t24.5 13t45.5 4h307q-23 37 -39 93t-16 114zM860 219v172q0 73 -15 122
t-39.5 78.5t-56.5 42t-66 12.5q-38 0 -71.5 -16t-58 -44.5t-39 -68t-14.5 -87.5q0 -47 16 -86t45.5 -67t72 -43t96.5 -15h130zM700 1196q0 27 10 50t27.5 40.5t40.5 27.5t50 10t50 -10t40.5 -27.5t27.5 -40.5t10 -50t-10 -50t-27.5 -40.5t-40.5 -27.5t-50 -10t-50 10
t-40.5 27.5t-27.5 40.5t-10 50zM400 1196q0 27 10 50t27.5 40.5t40.5 27.5t50 10t50 -10t40.5 -27.5t27.5 -40.5t10 -50t-10 -50t-27.5 -40.5t-40.5 -27.5t-50 -10t-50 10t-40.5 27.5t-27.5 40.5t-10 50z" />
    <glyph glyph-name="uniFED8" unicode="&#x642;" horiz-adv-x="1224" arabic-form="medial" 
d="M622 1196q0 27 10 50t27.5 40.5t40.5 27.5t50 10t50 -10t40.5 -27.5t27.5 -40.5t10 -50t-10 -50t-27.5 -40.5t-40.5 -27.5t-50 -10t-50 10t-40.5 27.5t-27.5 40.5t-10 50zM322 1196q0 27 10 50t27.5 40.5t40.5 27.5t50 10t50 -10t40.5 -27.5t27.5 -40.5t10 -50t-10 -50
t-27.5 -40.5t-40.5 -27.5t-50 -10t-50 10t-40.5 27.5t-27.5 40.5t-10 50zM1085 0q-113 0 -216.5 9t-181.5 23q-57 -8 -124.5 -14t-139.5 -9.5t-145 -6t-142 -2.5h-137q-24 0 -40 2.5t-25.5 10.5t-13.5 23t-4 41v70q0 19 2.5 32.5t10.5 22.5t24.5 13t45.5 4h250
q-20 26 -35 56.5t-25 60.5t-15 57.5t-5 48.5q0 84 33 159.5t95 133t149.5 91t197.5 33.5q97 0 172 -30t126 -81.5t77 -120.5t26 -146q0 -33 -6.5 -69t-16 -71t-20.5 -66.5t-21 -55.5h242q28 0 45 -4t25 -13t10.5 -22.5t2.5 -32.5v-70q0 -26 -4 -41t-13.5 -23t-25.5 -10.5
t-40 -2.5h-138zM418 464q0 -56 20.5 -101t55.5 -77t82 -49.5t101 -17.5h39q10 19 22 45t22 56t16.5 63t6.5 65q0 51 -14.5 90.5t-39 66t-56 40t-64.5 13.5q-35 0 -69.5 -11.5t-61.5 -35.5t-43.5 -60.5t-16.5 -86.5z" />
    <glyph glyph-name="uniFEDA" unicode="&#x643;" horiz-adv-x="1870" arabic-form="final" 
d="M561 0q-119 0 -207.5 14t-152 39.5t-104.5 61t-64.5 78.5t-33 92t-9.5 102q0 20 2 47t5.5 56.5t7.5 59.5t9 56l231 -20q-7 -38 -12.5 -76t-5.5 -76q0 -59 15.5 -99.5t59.5 -66.5t122.5 -37.5t204.5 -11.5h635q33 0 56.5 7t38 23.5t21.5 44.5t7 70v1073h261v-1108
q0 -18 -1.5 -35.5t-3.5 -34.5q49 -20 105.5 -30t117.5 -10h8q28 0 44 -4t23.5 -13t9 -22.5t1.5 -32.5v-70q0 -26 -3 -41t-12 -23t-24 -10.5t-39 -2.5h-11q-100 0 -170.5 22.5t-124.5 59.5q-35 -38 -87.5 -60t-127.5 -22h-792zM1008 805q-20 5 -44 8.5t-41 3.5
q-35 0 -53.5 -14.5t-18.5 -45.5q0 -14 6.5 -29.5t20.5 -28t34.5 -20.5t49.5 -8h68v-121h-392v121h93q-17 21 -27.5 51.5t-10.5 59.5q0 32 12.5 60.5t38.5 50.5t66 34.5t96 12.5q21 0 49.5 -1.5t71.5 -9.5z" />
    <glyph glyph-name="uniFEDB" unicode="&#x643;" horiz-adv-x="833" arabic-form="initial" 
d="M-4 0q-24 0 -39 2.5t-24 10.5t-12 23t-3 41v70q0 19 1.5 32.5t9 22.5t23 13t44.5 4h305q60 0 98.5 9t61 25.5t31 40t8.5 52.5q0 42 -26 85.5t-75.5 89.5t-121.5 95t-163 103l432 727l190 -122l-304 -526q79 -59 137.5 -113t97 -108.5t57.5 -111.5t19 -122q0 -71 -23 -133
t-73.5 -109t-130 -74t-191.5 -27h-329z" />
    <glyph glyph-name="uniFEDC" unicode="&#x643;" horiz-adv-x="991" arabic-form="medial" 
d="M-4 0q-24 0 -39 2.5t-24 10.5t-12 23t-3 41v70q0 19 1.5 32.5t9 22.5t23 13t44.5 4h305q60 0 98.5 9t61 25.5t31 40t8.5 52.5q0 42 -26 85.5t-75.5 89.5t-121.5 95t-163 103l432 727l190 -122l-304 -526q79 -59 137.5 -113t97 -108.5t57.5 -111.5t19 -122q0 -37 -6 -71
q52 -28 116 -40.5t134 -12.5h8q28 0 44 -4t23.5 -13t9 -22.5t1.5 -32.5v-70q0 -26 -3 -41t-12 -23t-24 -10.5t-39 -2.5h-11q-116 0 -194.5 30.5t-134.5 78.5q-51 -51 -131.5 -80t-198.5 -29h-329z" />
    <glyph glyph-name="uniFEDE" unicode="&#x644;" horiz-adv-x="1505" arabic-form="final" 
d="M990 1437h259v-1164q52 -28 117 -41t135 -13h8q28 0 44 -4t23.5 -13t9 -22.5t1.5 -32.5v-70q0 -26 -3 -41t-12 -23t-24 -10.5t-39 -2.5h-11q-85 0 -148 16t-113 45q-20 -111 -70 -202t-128.5 -156.5t-183.5 -101.5t-234 -36q-161 0 -279.5 45.5t-196.5 122t-116.5 176.5
t-38.5 210q0 51 10 106.5t28 111t42 108t53 96.5l209 -116q-17 -27 -30.5 -60.5t-23 -71t-14.5 -76t-5 -74.5q0 -75 25.5 -141t74.5 -115t121.5 -77.5t166.5 -28.5q85 0 149 28.5t107 82.5t65 131.5t22 175.5v1238z" />
    <glyph glyph-name="uniFEDF" unicode="&#x644;" horiz-adv-x="624" arabic-form="initial" 
d="M-4 0q-24 0 -39 2.5t-24 10.5t-12 23t-3 41v70q0 19 1.5 32.5t9 22.5t23 13t44.5 4h238v1218h260v-1437h-498z" />
    <glyph glyph-name="uniFEE0" unicode="&#x644;" horiz-adv-x="715" arabic-form="medial" 
d="M493 329q0 -18 -1.5 -35.5t-3.5 -34.5q49 -20 105.5 -30t117.5 -10h8q28 0 44 -4t23.5 -13t9 -22.5t1.5 -32.5v-70q0 -26 -3 -41t-12 -23t-24 -10.5t-39 -2.5h-11q-100 0 -170.5 22.5t-124.5 59.5q-35 -38 -87.5 -60t-127.5 -22h-202q-24 0 -39 2.5t-24 10.5t-12 23
t-3 41v70q0 19 1.5 32.5t9 22.5t23 13t44.5 4h113q33 0 56.5 7t38 23.5t21.5 44.5t7 70v1076h261v-1111z" />
    <glyph glyph-name="uniFEE2" unicode="&#x645;" horiz-adv-x="1482" arabic-form="final" 
d="M827 -11q-59 0 -113.5 12t-101.5 30.5t-85.5 41.5t-66.5 46q-38 -6 -76.5 -22.5t-69 -48t-49.5 -81.5t-19 -124q0 -51 7.5 -113t22.5 -132t38 -145.5t53 -152.5l-242 -80q-26 74 -50.5 160t-43 169.5t-30 158t-11.5 125.5q0 82 16.5 147t43.5 115.5t63 88t74 65t76.5 47
t71.5 33.5q30 107 69 186t82 135.5t88.5 92.5t89.5 56.5t85.5 28.5t75.5 8q77 0 139 -20.5t110 -54.5t82.5 -78.5t57 -93t33 -97.5t10.5 -92q0 -70 -19 -133q51 -25 112.5 -36.5t127.5 -11.5h8q28 0 44 -4t23.5 -13t9 -22.5t1.5 -32.5v-70q0 -26 -3 -41t-12 -23t-24 -10.5
t-39 -2.5h-11q-116 0 -194.5 30.5t-134.5 78.5q-53 -54 -131.5 -87t-187.5 -33zM1016 393q0 33 -12.5 73.5t-37.5 76t-62.5 59.5t-87.5 24t-91.5 -29.5t-74 -77.5t-56 -110t-36.5 -127q13 -13 40 -26t61 -23.5t71 -17t70 -6.5q49 0 89 7.5t68.5 27.5t43.5 56t15 93z" />
    <glyph glyph-name="uniFEE3" unicode="&#x645;" horiz-adv-x="1198" arabic-form="initial" 
d="M698 -11q-71 0 -126.5 12t-100 31.5t-78 44t-60.5 48.5q-88 -125 -258 -125h-79q-24 0 -39 2.5t-24 10.5t-12 23t-3 41v70q0 19 1.5 32.5t9 22.5t23 13t44.5 4h48q49 0 86 26t54 81q49 163 112 263.5t130 155t131.5 73t116.5 18.5q74 0 135 -19.5t109.5 -52.5t84 -77
t59 -93.5t35 -102t11.5 -101.5q0 -78 -27 -150t-79 -128t-128.5 -89.5t-175.5 -33.5zM866 393q0 35 -13 75.5t-39 75.5t-64.5 58.5t-88.5 23.5q-48 0 -88.5 -29.5t-72 -77.5t-55 -110t-36.5 -127q13 -13 40 -27t61 -25.5t70.5 -19t69.5 -7.5q49 0 89 10.5t68.5 33t43.5 58.5
t15 88z" />
    <glyph glyph-name="uniFEE4" unicode="&#x645;" horiz-adv-x="1352" arabic-form="medial" 
d="M698 -11q-71 0 -126.5 12t-100 31.5t-78 44t-60.5 48.5q-88 -125 -258 -125h-79q-24 0 -39 2.5t-24 10.5t-12 23t-3 41v70q0 19 1.5 32.5t9 22.5t23 13t44.5 4h48q49 0 86 26t54 81q49 163 112 263.5t130 155t131.5 73t116.5 18.5q74 0 135 -19.5t109.5 -52.5t84 -77
t59 -93.5t35 -102t11.5 -101.5q0 -29 -4 -58t-12 -57q53 -29 118.5 -42.5t137.5 -13.5h8q28 0 44 -4t23.5 -13t9 -22.5t1.5 -32.5v-70q0 -26 -3 -41t-12 -23t-24 -10.5t-39 -2.5h-11q-60 0 -110 8.5t-91.5 24.5t-75 37t-61.5 47q-53 -58 -130 -93t-179 -35zM866 393
q0 35 -13 75.5t-39 75.5t-64.5 58.5t-88.5 23.5q-48 0 -88.5 -29.5t-72 -77.5t-55 -110t-36.5 -127q13 -13 40 -27t61 -25.5t70.5 -19t69.5 -7.5q49 0 89 10.5t68.5 33t43.5 58.5t15 88z" />
    <glyph glyph-name="uniFEE6" unicode="&#x646;" horiz-adv-x="1493" arabic-form="final" 
d="M990 199q0 28 -5.5 69.5t-16 89t-25.5 97.5t-35 95l253 72q12 -36 25 -79t24.5 -90t20.5 -94.5t14 -92.5q51 -25 112 -36t127 -11h8q28 0 45 -4t25 -13t10.5 -22.5t2.5 -32.5v-70q0 -26 -4 -41t-13.5 -23t-25.5 -10.5t-40 -2.5h-11q-78 0 -138 14t-108 39
q-20 -109 -71 -199t-129.5 -154t-183 -99.5t-233.5 -35.5q-162 0 -280.5 45.5t-196 122t-114.5 176.5t-37 210q0 51 10 106.5t28 111t42.5 108t52.5 96.5l208 -116q-17 -27 -30.5 -60.5t-22.5 -70.5t-14 -76t-5 -75q0 -75 26 -140t73 -113t113 -75t147 -27q190 0 281 107
t91 304zM489 987q0 27 10 50t27.5 40.5t40.5 27.5t50 10t50 -10t40.5 -27.5t27.5 -40.5t10 -50t-10 -50t-27.5 -40.5t-40.5 -27.5t-50 -10t-50 10t-40.5 27.5t-27.5 40.5t-10 50z" />
    <glyph glyph-name="uniFEE7" unicode="&#x646;" horiz-adv-x="702" arabic-form="initial" 
d="M250 1196q0 27 10 50t27.5 40.5t40.5 27.5t50 10t50 -10t40.5 -27.5t27.5 -40.5t10 -50t-10 -50t-27.5 -40.5t-40.5 -27.5t-50 -10t-50 10t-40.5 27.5t-27.5 40.5t-10 50zM-4 0q-24 0 -39 2.5t-24 10.5t-12 23t-3 41v70q0 19 1.5 32.5t9 22.5t23 13t44.5 4h256v601h261
v-820h-517z" />
    <glyph glyph-name="uniFEE8" unicode="&#x646;" horiz-adv-x="715" arabic-form="medial" 
d="M493 329q0 -18 -1.5 -35.5t-3.5 -34.5q49 -20 105.5 -30t117.5 -10h8q28 0 44 -4t23.5 -13t9 -22.5t1.5 -32.5v-70q0 -26 -3 -41t-12 -23t-24 -10.5t-39 -2.5h-11q-100 0 -170.5 22.5t-124.5 59.5q-35 -38 -87.5 -60t-127.5 -22h-202q-24 0 -39 2.5t-24 10.5t-12 23
t-3 41v70q0 19 1.5 32.5t9 22.5t23 13t44.5 4h113q33 0 56.5 7t38 23.5t21.5 44.5t7 70v455h261v-490zM228 1196q0 27 10 50t27.5 40.5t40.5 27.5t50 10t50 -10t40.5 -27.5t27.5 -40.5t10 -50t-10 -50t-27.5 -40.5t-40.5 -27.5t-50 -10t-50 10t-40.5 27.5t-27.5 40.5t-10 50
z" />
    <glyph glyph-name="uniFEE9" unicode="&#x647;" horiz-adv-x="1496" arabic-form="isolated" 
d="M317 0q-48 0 -74.5 -14t-40 -39.5t-17.5 -62t-6 -80.5h-136q-22 41 -37.5 93.5t-15.5 108.5q0 63 20.5 104t55 65t80.5 34t97 10h83q-26 54 -40 110.5t-14 98.5q0 48 12.5 97t34.5 95.5t52 88t65 76.5q-8 3 -24.5 7.5t-32.5 8.5q7 21 20 45t28.5 48.5t33.5 48.5t35 45
q240 -48 409 -106t276 -137.5t156 -187t49 -252.5v-16.5t-1.5 -43t-4 -90t-6.5 -155.5h-1057zM654 714q-34 0 -60 -19t-43.5 -51.5t-26.5 -74.5t-9 -87q0 -38 6 -75.5t18.5 -72.5t31.5 -64.5t44 -50.5h113q23 45 36.5 110.5t13.5 134.5q0 48 -7 93.5t-22 80t-38.5 55.5
t-56.5 21zM1133 219q3 23 5 51t2 51q0 39 -8 82t-26.5 82.5t-48 73t-71.5 53.5q13 -35 18 -78.5t5 -81.5q0 -61 -12.5 -124t-29.5 -109h166z" />
    <glyph glyph-name="uniFEEA" unicode="&#x647;" horiz-adv-x="1037" arabic-form="final" 
d="M615 673q-86 -18 -155 -42.5t-118.5 -56t-76 -71t-26.5 -87.5q0 -39 15.5 -66t40 -43.5t55.5 -23.5t62 -7q57 0 110 16t93 42v339zM873 343q0 -36 3.5 -59.5t14 -38t29 -20.5t49.5 -6h72q28 0 44 -4t23.5 -13t9 -22.5t1.5 -32.5v-70q0 -26 -3 -41t-12 -23t-24 -10.5
t-39 -2.5h-117q-68 0 -117 10.5t-83.5 28t-56.5 41t-35 50.5q-65 -34 -126 -48t-128 -14t-136 18.5t-125 57.5t-91.5 100.5t-35.5 147.5q0 76 30 137.5t80.5 110.5t115 87t134 66.5t138.5 48.5t127 34v113h258v-646z" />
    <glyph glyph-name="uniFEEB" unicode="&#x647;" horiz-adv-x="1405" arabic-form="initial" 
d="M-4 0q-24 0 -39 2.5t-24 10.5t-12 23t-3 41v70q0 19 1.5 32.5t9 22.5t23 13t44.5 4h236q-32 57 -41.5 112.5t-9.5 96.5q0 48 12.5 97t34.5 95.5t52 88t65 76.5q-8 3 -24.5 7.5t-32.5 8.5q7 21 20 45t28.5 49t33.5 48.5t35 44.5q240 -48 409 -106t276 -137.5t156 -187
t49 -252.5v-16.5t-1.5 -43t-4 -90t-6.5 -155.5h-1287zM563 714q-34 0 -60 -19t-43.5 -51.5t-26.5 -74.5t-9 -87q0 -38 6 -75.5t18.5 -72.5t31.5 -64.5t44 -50.5h113q23 45 36.5 110.5t13.5 134.5q0 48 -7 93.5t-22 80t-38.5 55.5t-56.5 21zM1042 219q3 23 5 51t2 51
q0 39 -8 82t-26.5 82.5t-48 73t-71.5 53.5q13 -35 18 -78.5t5 -81.5q0 -61 -12.5 -124t-29.5 -109h166z" />
    <glyph glyph-name="uniFEEC" unicode="&#x647;" horiz-adv-x="1223" arabic-form="medial" 
d="M-4 0q-24 0 -39 2.5t-24 10.5t-12 23t-3 41v70q0 19 1.5 32.5t9 22.5t23 13t44.5 4h210q25 111 61.5 200t79.5 158.5t91 119.5t95 82.5t91 48t81 15.5q66 0 123.5 -34t99.5 -89.5t66 -125t24 -140.5q0 -65 -25 -126t-61 -109h291q28 0 44 -4t23.5 -13t9 -22.5t1.5 -32.5
v-70q0 -26 -3 -41t-12 -23t-24 -10.5t-39 -2.5h-317q18 -23 35.5 -50.5t31 -58t22 -64t8.5 -69.5q0 -86 -32.5 -153t-83 -112.5t-111.5 -69.5t-118 -24q-42 0 -91.5 15t-100 46.5t-98.5 80t-87 115t-65.5 152.5t-34.5 192h-185zM779 416q0 40 -9.5 77t-25.5 65.5t-35.5 45.5
t-38.5 17q-28 0 -63 -31.5t-68 -86.5t-60.5 -128t-39.5 -156h146q44 0 79.5 15t61 41t39.5 62.5t14 78.5zM424 0q8 -93 34.5 -165t61.5 -121.5t75 -75.5t75 -26q19 0 36 13.5t29 36t19 52.5t7 62q0 43 -13 83t-37 71.5t-58 50.5t-76 19h-153z" />
    <glyph glyph-name="uniFEEE" unicode="&#x648;" horiz-adv-x="1182" arabic-form="final" 
d="M606 0q-135 0 -228 36.5t-150.5 94.5t-83 129t-25.5 139q0 91 33.5 173.5t95 145t148.5 99.5t195 37q44 0 92 -8t94 -28.5t87 -55.5t72.5 -88.5t50 -127.5t18.5 -172v-155h181q28 0 44 -4t23.5 -13t9 -22.5t1.5 -32.5v-70q0 -26 -3 -41t-12 -23t-24 -10.5t-39 -2.5h-197
q-36 -96 -105.5 -171t-164 -130t-210 -89t-243.5 -47l-24 214q92 6 170 26t139.5 50t106 67.5t69.5 79.5h-121zM747 219v96q0 103 -16.5 167.5t-43 101t-60.5 49.5t-69 13q-38 0 -73.5 -16t-62.5 -45t-43.5 -69.5t-16.5 -89.5q0 -96 58.5 -151.5t184.5 -55.5h142z" />
    <glyph glyph-name="uniFEF0" unicode="&#x649;" horiz-adv-x="2074" arabic-form="final" 
d="M1105 398q0 211 112 317t345 106h309v-434q0 -56 5 -89t16 -50.5t29.5 -23t45.5 -5.5h111q28 0 44 -4t23.5 -13t9 -22.5t1.5 -32.5v-70q0 -26 -3 -41t-12 -23t-24 -10.5t-39 -2.5h-168q-56 0 -110.5 17t-97 54.5t-68.5 96.5t-26 144v299q-57 0 -102.5 -8.5t-77 -34
t-48 -71t-16.5 -119.5v-299q0 -98 -44.5 -191.5t-129 -166.5t-206.5 -117.5t-277 -44.5q-147 0 -257 28.5t-189.5 75t-132 106t-83 121t-43 120.5t-12.5 104q0 57 11 114.5t30 111.5t45.5 102t57.5 87l205 -111q-20 -27 -36.5 -61.5t-28 -72.5t-18 -77.5t-6.5 -76.5
q0 -33 7 -71.5t25.5 -77t51 -74.5t83.5 -63.5t122 -44t168 -16.5q93 0 167 23.5t125.5 62t78.5 88.5t27 103v338z" />
    <glyph glyph-name="uniFEF2" unicode="&#x64a;" horiz-adv-x="2074" arabic-form="final" 
d="M1105 398q0 211 112 317t345 106h309v-434q0 -56 5 -89t16 -50.5t29.5 -23t45.5 -5.5h111q28 0 44 -4t23.5 -13t9 -22.5t1.5 -32.5v-70q0 -26 -3 -41t-12 -23t-24 -10.5t-39 -2.5h-168q-56 0 -110.5 17t-97 54.5t-68.5 96.5t-26 144v299q-57 0 -102.5 -8.5t-77 -34
t-48 -71t-16.5 -119.5v-299q0 -98 -44.5 -191.5t-129 -166.5t-206.5 -117.5t-277 -44.5q-147 0 -257 28.5t-189.5 75t-132 106t-83 121t-43 120.5t-12.5 104q0 57 11 114.5t30 111.5t45.5 102t57.5 87l205 -111q-20 -27 -36.5 -61.5t-28 -72.5t-18 -77.5t-6.5 -76.5
q0 -33 7 -71.5t25.5 -77t51 -74.5t83.5 -63.5t122 -44t168 -16.5q93 0 167 23.5t125.5 62t78.5 88.5t27 103v338zM730 -683q0 27 10 50t27.5 40.5t40.5 27.5t50 10t50 -10t40.5 -27.5t27.5 -40.5t10 -50t-10 -50t-27.5 -40.5t-40.5 -27.5t-50 -10t-50 10t-40.5 27.5
t-27.5 40.5t-10 50zM430 -683q0 27 10 50t27.5 40.5t40.5 27.5t50 10t50 -10t40.5 -27.5t27.5 -40.5t10 -50t-10 -50t-27.5 -40.5t-40.5 -27.5t-50 -10t-50 10t-40.5 27.5t-27.5 40.5t-10 50z" />
    <glyph glyph-name="uniFEF3" unicode="&#x64a;" horiz-adv-x="643" arabic-form="initial" 
d="M-4 0q-24 0 -39 2.5t-24 10.5t-12 23t-3 41v70q0 19 1.5 32.5t9 22.5t23 13t44.5 4h256v601h261v-820h-517zM365 -287q0 27 10 50t27.5 40.5t40.5 27.5t50 10t50 -10t40.5 -27.5t27.5 -40.5t10 -50t-10 -50t-27.5 -40.5t-40.5 -27.5t-50 -10t-50 10t-40.5 27.5
t-27.5 40.5t-10 50zM65 -287q0 27 10 50t27.5 40.5t40.5 27.5t50 10t50 -10t40.5 -27.5t27.5 -40.5t10 -50t-10 -50t-27.5 -40.5t-40.5 -27.5t-50 -10t-50 10t-40.5 27.5t-27.5 40.5t-10 50z" />
    <glyph glyph-name="uniFEF4" unicode="&#x64a;" horiz-adv-x="715" arabic-form="medial" 
d="M493 329q0 -18 -1.5 -35.5t-3.5 -34.5q49 -20 105.5 -30t117.5 -10h8q28 0 44 -4t23.5 -13t9 -22.5t1.5 -32.5v-70q0 -26 -3 -41t-12 -23t-24 -10.5t-39 -2.5h-11q-100 0 -170.5 22.5t-124.5 59.5q-35 -38 -87.5 -60t-127.5 -22h-202q-24 0 -39 2.5t-24 10.5t-12 23
t-3 41v70q0 19 1.5 32.5t9 22.5t23 13t44.5 4h113q33 0 56.5 7t38 23.5t21.5 44.5t7 70v455h261v-490zM368 -287q0 27 10 50t27.5 40.5t40.5 27.5t50 10t50 -10t40.5 -27.5t27.5 -40.5t10 -50t-10 -50t-27.5 -40.5t-40.5 -27.5t-50 -10t-50 10t-40.5 27.5t-27.5 40.5t-10 50
zM68 -287q0 27 10 50t27.5 40.5t40.5 27.5t50 10t50 -10t40.5 -27.5t27.5 -40.5t10 -50t-10 -50t-27.5 -40.5t-40.5 -27.5t-50 -10t-50 10t-40.5 27.5t-27.5 40.5t-10 50z" />
    <glyph glyph-name=".notdef" horiz-adv-x="1021" 
d="M443 234v133h111v-133h-111zM449 466q-1 8 -2.5 17t-1.5 17q0 18 1 39.5t3.5 43t7.5 42.5t13 37q18 37 50 70.5t63.5 67t55 69t23.5 76.5q0 32 -11 62.5t-31 54.5t-48 38.5t-62 14.5q-41 0 -70 -16t-48.5 -43t-30 -61t-14.5 -70l-100 16q6 59 24.5 109t51.5 86.5t81 57
t112 20.5q57 0 102.5 -20.5t77.5 -55.5t49.5 -82.5t17.5 -102.5q0 -50 -13 -87t-33.5 -66.5t-45.5 -53t-48.5 -45t-42.5 -43.5t-28 -48q-4 -13 -6.5 -32t-3.5 -39.5t-1.5 -40t-0.5 -32.5h-91zM921 99v1231h-822v-1231h822zM1021 1431v-1431h-1021v1431h1021z" />
    <glyph glyph-name=".null" horiz-adv-x="1024" 
 />
    <glyph glyph-name=".null" horiz-adv-x="1024" 
 />
    <glyph glyph-name="nonmarkingreturn" unicode="&#xd;" horiz-adv-x="0" 
 />
    <glyph glyph-name="space" unicode=" " horiz-adv-x="569" 
 />
    <glyph glyph-name="space" unicode="&#xa0;" horiz-adv-x="569" 
 />
    <glyph glyph-name="exclam" unicode="!" horiz-adv-x="797" 
d="M242 1430h315l-43 -1010h-233zM256 287h287v-287h-287v287z" />
    <glyph glyph-name="quotedbl" unicode="&#x22;" horiz-adv-x="985" 
d="M555 1430h250v-512h-250v512zM180 1430h250v-512h-250v512z" />
    <glyph glyph-name="numbersign" unicode="#" 
d="M1012 420h-189l-59 -420h-180l59 420h-209l-61 -420h-180l59 420h-184v164h206l35 262h-180v164h205l57 420h182l-57 -420h209l57 420h181l-58 -420h166v-164h-190l-35 -262h166v-164zM492 846l-35 -262h209l34 262h-208z" />
    <glyph glyph-name="dollar" unicode="$" 
d="M530 1208q-57 -24 -84.5 -70.5t-27.5 -107.5q0 -25 10 -46.5t25.5 -39t35.5 -31.5t41 -24v319zM627 229q51 22 84.5 60t33.5 96q0 61 -33.5 97t-84.5 61v-314zM627 1602v-148q85 0 169 -12t165 -39l-27 -236q-69 30 -142.5 46t-148.5 16q-6 0 -16 -2v-379
q84 -31 159.5 -65t133 -82.5t91 -119t33.5 -173.5q0 -98 -30.5 -172.5t-85.5 -127t-131.5 -83.5t-169.5 -41v-168h-97v161q-23 -3 -50 -3q-40 0 -85 6t-90 14.5t-87.5 18.5l-76.5 18l27 258q74 -42 156.5 -65t167.5 -23q22 0 38 4v383q-80 29 -154 63.5t-131 83.5
t-91.5 117.5t-34.5 165.5q0 45 6.5 88.5t21 83t38.5 75.5t59 66q63 54 133.5 82.5t152.5 36.5v152h97z" />
    <glyph glyph-name="percent" unicode="%" horiz-adv-x="2048" 
d="M1493 139q42 0 67 21t38.5 53t17.5 69t4 70t-3.5 70.5t-16.5 69t-38.5 52.5t-68.5 21q-41 0 -66.5 -21t-40 -53t-19.5 -69.5t-5 -69.5q0 -31 5.5 -68t20 -69.5t40 -54t65.5 -21.5zM1386 1475h168l-884 -1520h-168zM561 700q-89 0 -154 27t-107 76.5t-62.5 119
t-20.5 154.5t20.5 154.5t62.5 119t107 76.5t154 27q88 0 152.5 -27.5t106 -77.5t61.5 -119t20 -153t-20 -153.5t-61.5 -119t-105.5 -77t-153 -27.5zM561 864q42 0 67.5 21t38.5 53t17 69t4 70q0 34 -3.5 71.5t-16.5 69t-38.5 52t-68.5 20.5q-41 0 -66.5 -21t-40 -53
t-19.5 -69.5t-5 -69.5q0 -31 5.5 -68t20 -69.5t40 -54t65.5 -21.5zM1493 -25q-89 0 -154 27.5t-107 77t-62.5 119t-20.5 153.5q0 85 20.5 154.5t62.5 119t107 76.5t154 27q88 0 152.5 -27.5t106 -77.5t61.5 -119t20 -153q0 -83 -20 -152.5t-61.5 -119.5t-106 -77.5
t-152.5 -27.5z" />
    <glyph glyph-name="ampersand" unicode="&#x26;" horiz-adv-x="1479" 
d="M571 629q-35 -17 -66.5 -39.5t-55.5 -51t-38 -63.5t-14 -76q0 -48 21 -87t55 -66.5t77.5 -42.5t88.5 -15q67 0 133.5 19t116.5 67zM635 899q27 12 59 34t60.5 49.5t47.5 59.5t19 64q0 73 -43.5 110t-113.5 37q-72 0 -118 -38t-46 -113q0 -28 14 -56t34.5 -54.5t44 -50z
M1057 465q27 33 44 70t27 77t14 81.5t5 82.5h250q-5 -137 -50 -259.5t-133 -229.5l256 -287h-352l-96 127q-38 -38 -83.5 -66.5t-96 -47.5t-103.5 -28.5t-106 -9.5q-98 0 -190 25t-163 76.5t-114 131t-43 189.5q0 78 22 137.5t61.5 106t95 81t122.5 62.5q-77 71 -139 152
q-34 45 -47 90.5t-13 101.5t18.5 102t51 82.5t75 63t91 44t99.5 26t99 8.5q77 0 151 -17.5t132 -56.5t93.5 -100.5t35.5 -149.5q0 -71 -21 -127t-58.5 -101t-88 -81.5t-108.5 -68.5z" />
    <glyph glyph-name="quotesingle" unicode="'" horiz-adv-x="569" 
d="M160 1430h250v-512h-250v512z" />
    <glyph glyph-name="parenleft" unicode="(" horiz-adv-x="682" 
d="M668 1548q-70 -108 -125 -216t-93.5 -220.5t-58.5 -231.5t-20 -249q0 -248 77 -482.5t220 -435.5h-260q-158 199 -243 430.5t-85 487.5q0 133 21.5 253.5t63 233t102.5 219t141 211.5h260z" />
    <glyph glyph-name="parenright" unicode=")" horiz-adv-x="682" 
d="M14 -287q70 99 125 209t93.5 227t58.5 238.5t20 243.5q0 132 -20 250.5t-58 230.5t-93 219.5t-126 216.5h258q81 -106 142.5 -212t103 -218t63 -232t21.5 -255q0 -126 -22 -248.5t-64.5 -238.5t-104 -224.5t-139.5 -206.5h-258z" />
    <glyph glyph-name="asterisk" unicode="*" 
d="M707 973l196 -219l-188 -136l-146 254l-155 -254l-187 136l201 219l-281 63l68 213l272 -116l-32 297h233l-35 -295l273 114l65 -213z" />
    <glyph glyph-name="plus" unicode="+" horiz-adv-x="1229" 
d="M508 1036h213v-411h414v-213h-414v-412h-213v412h-414v213h414v411z" />
    <glyph glyph-name="comma" unicode="," horiz-adv-x="667" 
d="M227 287h297l-186 -512h-242z" />
    <glyph glyph-name="hyphen" unicode="-" horiz-adv-x="682" 
d="M72 438v226h538v-226h-538z" />
    <glyph glyph-name="hyphen" unicode="&#x2010;" horiz-adv-x="682" 
d="M72 438v226h538v-226h-538z" />
    <glyph glyph-name="hyphen" unicode="&#xad;" horiz-adv-x="682" 
d="M72 438v226h538v-226h-538z" />
    <glyph glyph-name="period" unicode="." horiz-adv-x="667" 
d="M190 287h287v-287h-287v287z" />
    <glyph glyph-name="slash" unicode="/" horiz-adv-x="797" 
d="M543 1454h213l-500 -1479h-213z" />
    <glyph glyph-name="zero" unicode="0" 
d="M567 -25q-103 0 -180 31.5t-132 85.5t-90.5 126.5t-56 154t-28.5 168.5t-8 170q0 81 9 167.5t30 169t57.5 156.5t91.5 129.5t130.5 88t176.5 32.5q105 0 183 -31.5t133.5 -86t91 -127.5t56 -155.5t28.5 -170.5t8 -172q0 -83 -8.5 -170t-29.5 -169t-57 -154t-91.5 -126
t-133 -85.5t-180.5 -31.5zM567 188q43 0 75 16.5t54 43.5t36.5 62t23.5 73q10 41 17 85.5t7 86.5v210q0 43 -1.5 95t-8.5 105t-20.5 103t-37 88.5t-59 61.5t-86.5 23q-54 0 -90.5 -29t-59.5 -76t-35 -105.5t-17.5 -117.5t-6 -112.5t-0.5 -89.5t1 -88.5t6.5 -111t18 -116
t35.5 -104t59 -75t89 -28.5z" />
    <glyph glyph-name="one" unicode="1" 
d="M580 1430h254v-1430h-287v1104l-242 -197l-143 187z" />
    <glyph glyph-name="two" unicode="2" 
d="M84 0v240q44 41 107.5 98.5t132 125t136 141.5t121.5 149t87.5 147t33.5 135q0 51 -19.5 87.5t-51.5 60t-74 34.5t-88 11q-92 0 -173 -33t-157 -82l-22 238q99 50 206 76t218 26q103 0 185.5 -25t141 -76.5t90 -130t31.5 -186.5q0 -59 -14.5 -117t-39 -113t-57.5 -106
t-69 -96q-82 -101 -172 -195.5t-186 -183.5h583v-225h-950z" />
    <glyph glyph-name="three" unicode="3" 
d="M109 266q75 -32 155.5 -48.5t161.5 -16.5q45 0 97.5 11t97.5 35.5t75.5 63t30.5 92.5q0 77 -32 122t-82 68t-113 29t-124 6q-27 0 -53.5 -0.5t-50.5 -0.5v225q16 0 35 -0.5t41 -0.5q37 0 79.5 2t84 8.5t79.5 19t67 33.5t46 51.5t17 74.5q0 56 -20.5 92.5t-54.5 58
t-78.5 30t-92.5 8.5q-85 0 -165.5 -19t-155.5 -57l-17 229q95 38 196.5 55t203.5 17q90 0 175 -18.5t150.5 -61.5t105.5 -113.5t40 -173.5q0 -67 -19 -121t-54 -96t-84 -73t-110 -52v-4q69 -10 120.5 -39t85 -73.5t50.5 -102.5t17 -125q0 -52 -11 -102t-33.5 -94.5t-57 -81
t-81.5 -62.5q-20 -11 -41 -19.5t-42 -16.5q-136 -50 -281 -50q-95 0 -189 11t-186 37z" />
    <glyph glyph-name="four" unicode="4" 
d="M649 510v620h-4l-354 -620h358zM33 528l534 902h357v-920h182v-213h-182v-297h-275v297h-616v231z" />
    <glyph glyph-name="five" unicode="5" 
d="M1004 1217h-551l-7 -306q32 8 66 11.5t66 3.5q67 0 129.5 -12.5t117 -40.5t98.5 -72.5t74 -108.5q24 -51 32.5 -113t8.5 -118q0 -122 -44.5 -213.5t-120.5 -152t-177.5 -90.5t-214.5 -30q-168 0 -334 41l7 256q69 -29 142.5 -50t149.5 -21q59 0 114.5 15t98 45.5t68 78
t25.5 113.5q0 71 -28.5 118.5t-75 76t-105 40.5t-119.5 12q-66 0 -130 -8t-126 -30l14 768h822v-213z" />
    <glyph glyph-name="six" unicode="6" 
d="M942 1171q-59 27 -122 42.5t-128 15.5q-84 0 -150 -35t-108 -107q-41 -69 -60.5 -145t-21.5 -156l4 -4q99 144 277 144q104 0 182 -30.5t130.5 -87t79 -137.5t26.5 -182q0 -116 -29 -211t-87.5 -162.5t-148.5 -104t-211 -36.5q-106 0 -185 29t-134.5 83t-90 132.5
t-52.5 177.5q-12 66 -17.5 131.5t-5.5 133.5q0 141 29.5 273.5t93.5 258.5q35 69 84 118t108.5 80.5t128.5 46.5t144 15q155 0 301 -51zM569 713q-56 0 -93 -25t-59 -64t-31 -87.5t-9 -94.5q0 -47 11 -92.5t34.5 -81.5t61 -58t91.5 -22q52 0 88.5 23.5t58.5 60t32 82
t10 90.5q0 48 -9 96t-31.5 86.5t-60 62.5t-94.5 24z" />
    <glyph glyph-name="seven" unicode="7" 
d="M102 1430h922v-238l-508 -1192h-311l530 1204h-633v226z" />
    <glyph glyph-name="eight" unicode="8" 
d="M334 745q-50 23 -93.5 56t-75.5 75.5t-50.5 93t-18.5 107.5q0 102 37 173.5t99 117t144.5 66t174.5 20.5q55 0 112 -7t110.5 -23t100 -42.5t81.5 -64.5t55 -89.5t20 -117.5q0 -59 -17.5 -111t-48.5 -95.5t-75 -78t-96 -57.5v-2q60 -28 110 -64t86.5 -82t57 -103
t20.5 -126q0 -111 -39 -190t-105.5 -129.5t-156 -73.5t-191.5 -23q-97 0 -185 22t-169 77q-82 57 -115.5 136.5t-33.5 176.5q0 66 19.5 119.5t54.5 97t83 77.5t105 60v4zM371 1069q0 -35 13 -62t34.5 -48.5t48.5 -38.5t55 -31q19 -10 36.5 -19t37.5 -16q31 13 60 33.5t51 47
t35.5 58.5t13.5 68q0 83 -45.5 131.5t-130.5 48.5q-39 0 -76.5 -11t-67 -32.5t-47.5 -53.5t-18 -75zM358 391q0 -43 18.5 -80t49 -64.5t69.5 -43t80 -15.5q43 0 80 13t65 38t44 60t16 80q0 53 -20 93.5t-53.5 70.5t-76.5 50.5t-89 33.5q-39 -17 -72 -39t-58 -51t-39 -65
t-14 -81z" />
    <glyph glyph-name="nine" unicode="9" 
d="M199 258q58 -29 121.5 -43t128.5 -14q94 0 158 39t103.5 101.5t57.5 141.5t20 160l-4 4q-50 -75 -118.5 -109t-157.5 -34q-105 0 -183 30t-130.5 86.5t-78.5 137t-26 182.5q0 117 28.5 211.5t87 162t148 104t211.5 36.5q61 0 119 -11t109 -35.5t93 -63.5t72 -95
q25 -48 43 -102.5t29 -111t16 -113.5t5 -111q0 -149 -25.5 -294t-93.5 -279q-35 -68 -84.5 -117.5t-110.5 -82t-130.5 -48t-143.5 -15.5q-77 0 -153 13t-148 39zM571 717q57 0 94.5 24.5t59 63.5t30.5 87t9 95q0 49 -10 94.5t-33.5 81t-61.5 57t-94 21.5q-53 0 -88.5 -23.5
t-58 -60t-32 -82t-9.5 -90.5t10 -92.5t33 -86.5t60 -64t91 -25z" />
    <glyph glyph-name="colon" unicode=":" horiz-adv-x="667" 
d="M190 1055h287v-287h-287v287zM190 287h287v-287h-287v287z" />
    <glyph glyph-name="semicolon" unicode=";" horiz-adv-x="667" 
d="M227 287h297l-186 -512h-242zM190 1055h287v-287h-287v287z" />
    <glyph glyph-name="less" unicode="&#x3c;" horiz-adv-x="1229" 
d="M94 430v176l1041 447v-209l-764 -326l764 -325v-209z" />
    <glyph glyph-name="equal" unicode="=" horiz-adv-x="1229" 
d="M1135 635h-1041v213h1041v-213zM1135 188h-1041v213h1041v-213z" />
    <glyph glyph-name="greater" unicode="&#x3e;" horiz-adv-x="1229" 
d="M858 518l-764 326v209l1041 -447v-176l-1041 -446v209z" />
    <glyph glyph-name="question" unicode="?" horiz-adv-x="1024" 
d="M102 1386q98 32 200.5 50t205.5 18q88 0 172 -20t149.5 -63.5t105.5 -113.5t40 -170q0 -70 -26 -127.5t-64.5 -107.5t-84 -96t-84 -95t-64.5 -103t-26 -120l1 -20h-252q1 110 36.5 207t112.5 178q28 29 55 58t52 61q45 59 45 133q0 52 -20 87.5t-53 57.5t-75.5 31.5
t-87.5 9.5q-81 0 -162.5 -22t-152.5 -60zM358 287h287v-287h-287v287z" />
    <glyph glyph-name="at" unicode="@" horiz-adv-x="1638" 
d="M850 913q-51 0 -93 -23t-72 -60.5t-47 -84.5t-17 -94q0 -35 10.5 -65.5t30 -53t48 -36t64.5 -13.5q51 0 93 24t72 62t46 86t16 95q0 72 -38 117.5t-113 45.5zM1466 293q-236 -318 -636 -318q-150 0 -274.5 46t-240.5 141q-64 52 -109 114.5t-74 133t-42.5 147.5
t-13.5 158q0 111 29 209t81.5 180t125 147t160.5 110t188.5 69t207.5 24q128 0 247.5 -34.5t225.5 -106.5q57 -39 99 -90.5t69.5 -111t40.5 -125.5t13 -134q0 -93 -26 -176.5t-75 -152.5t-119 -122t-157 -86q-32 -12 -68 -22t-71 -10q-48 0 -77.5 30t-33.5 76h-4
q-38 -46 -92 -76t-115 -30q-70 0 -128 27.5t-100 74t-65.5 108t-23.5 128.5q0 90 29 178.5t83.5 158t132.5 113t176 43.5q77 0 136 -34t102 -97l25 98h172l-113 -497q-5 -19 -9.5 -34.5t-4.5 -35.5q0 -16 6.5 -23.5t23.5 -7.5q50 0 88 26t68 62q23 27 37.5 60.5t23 70
t12 73.5t3.5 71q0 110 -39 193.5t-135 142.5q-20 12 -39.5 23.5t-40.5 19.5q-27 11 -62.5 18.5t-73.5 12.5t-75 7.5t-66 2.5q-118 0 -223.5 -40.5t-184.5 -113.5t-125 -174.5t-46 -222.5q0 -117 38.5 -217t108 -173.5t167 -116t216.5 -44.5h14q61 0 122 5.5t119.5 20
t113.5 39.5t104 64h174z" />
    <glyph glyph-name="A" unicode="A" horiz-adv-x="1479" 
d="M733 1143h-4l-207 -590h418zM575 1430h324l561 -1430h-317l-123 328h-580l-125 -328h-297z" />
    <glyph glyph-name="B" unicode="B" horiz-adv-x="1251" 
d="M453 225h135q50 0 102.5 8t95 29.5t70 60.5t27.5 101q0 58 -19 104t-73 74q-23 12 -46 21t-49 12t-53.5 3.5t-54.5 0.5h-135v-414zM453 852h124q44 0 90.5 7t85 26t63 53t24.5 88q0 66 -24.5 102t-63.5 53t-88.5 20t-100.5 3h-110v-352zM166 1430h500q94 0 177.5 -17.5
t146.5 -59.5t99.5 -113t36.5 -177q0 -66 -21 -120t-58.5 -94.5t-90 -67t-114.5 -38.5v-4q68 -6 127.5 -30.5t104 -65.5t70 -99t25.5 -130q0 -113 -40.5 -192t-109.5 -128.5t-160 -71.5t-193 -22h-500v1430z" />
    <glyph glyph-name="C" unicode="C" horiz-adv-x="1251" 
d="M1206 20q-79 -22 -161 -33.5t-164 -11.5q-78 0 -153 9t-146 30t-137.5 55.5t-127.5 84.5q-62 51 -104.5 111.5t-68.5 129t-37 143t-11 152.5q0 56 6.5 113t18.5 111q31 147 101 249.5t169 167t223.5 94t266.5 29.5q83 0 164 -16t159 -43l-20 -242q-41 23 -77 37.5
t-72.5 23t-75.5 12t-85 3.5q-113 0 -202 -40.5t-150.5 -110.5t-94 -164.5t-32.5 -202.5q0 -110 33.5 -203.5t96 -161.5t152.5 -106.5t204 -38.5q35 0 76.5 3.5t83.5 11t81.5 18.5t71.5 26z" />
    <glyph glyph-name="D" unicode="D" horiz-adv-x="1479" 
d="M166 1430h411q70 0 143.5 -7.5t146 -25t140.5 -45t128 -66.5q72 -48 119.5 -112.5t76 -139.5t40 -156.5t11.5 -162.5q0 -199 -60.5 -335.5t-169 -221t-260.5 -121.5t-335 -37h-391v1430zM453 225h159q106 0 192.5 37.5t148.5 103.5t96 155.5t34 193.5t-33.5 193.5
t-95.5 155t-149 103t-193 37.5h-159v-979z" />
    <glyph glyph-name="E" unicode="E" 
d="M166 1430h844v-226h-557v-352h510v-225h-510v-402h561v-225h-848v1430z" />
    <glyph glyph-name="F" unicode="F" horiz-adv-x="1024" 
d="M166 1430h795v-226h-508v-352h483v-225h-483v-627h-287v1430z" />
    <glyph glyph-name="G" unicode="G" horiz-adv-x="1479" 
d="M1282 1153q-178 76 -369 76q-118 0 -214 -37t-163.5 -104.5t-104 -163t-36.5 -213.5q0 -110 33.5 -203.5t96 -161.5t152.5 -106.5t204 -38.5q48 0 95 4t93 16v373h-303v225h577v-770q-112 -33 -228.5 -53.5t-233.5 -20.5q-78 0 -153 9t-146 30t-137.5 55.5t-127.5 84.5
q-62 51 -104.5 111.5t-68.5 129t-37 143t-11 152.5q0 56 6.5 113t18.5 111q31 147 101 249.5t169 167t223.5 94t266.5 29.5q106 0 212 -13.5t207 -45.5z" />
    <glyph glyph-name="H" unicode="H" horiz-adv-x="1479" 
d="M166 1430h287v-578h573v578h287v-1430h-287v627h-573v-627h-287v1430z" />
    <glyph glyph-name="I" unicode="I" horiz-adv-x="569" 
d="M141 1430h287v-1430h-287v1430z" />
    <glyph glyph-name="J" unicode="J" horiz-adv-x="797" 
d="M45 250q32 -15 67 -20t70 -5q59 0 95.5 18.5t57 51.5t27.5 77t7 95v963h286v-1090q0 -86 -30.5 -153.5t-83 -114.5t-124 -72t-153.5 -25q-56 0 -110.5 7t-108.5 20v248z" />
    <glyph glyph-name="K" unicode="K" horiz-adv-x="1366" 
d="M166 1430h287v-615l516 615h352l-588 -674l613 -756h-375l-514 664h-4v-664h-287v1430z" />
    <glyph glyph-name="L" unicode="L" horiz-adv-x="1024" 
d="M166 1430h287v-1205h555v-225h-842v1430z" />
    <glyph glyph-name="M" unicode="M" horiz-adv-x="1933" 
d="M166 1430h459l340 -1084h4l340 1084h458v-1430h-274v1180h-4l-385 -1180h-275l-385 1180l-4 -4v-1176h-274v1430z" />
    <glyph glyph-name="N" unicode="N" horiz-adv-x="1479" 
d="M152 1430h352l545 -1070h4v1070h274v-1430h-350l-547 1069h-4v-1069h-274v1430z" />
    <glyph glyph-name="O" unicode="O" horiz-adv-x="1593" 
d="M96 719q0 166 45.5 301.5t134.5 232t220 149t301 52.5q169 0 299.5 -53t219.5 -150t135 -232t46 -300q0 -164 -46 -300.5t-134.5 -235t-219.5 -153.5t-300 -55q-170 0 -301 54.5t-220 153t-134.5 235t-45.5 301.5zM797 1229q-108 0 -184.5 -45.5t-125 -118.5
t-70.5 -165.5t-22 -186.5q0 -95 22.5 -187t70.5 -164t124.5 -116.5t184.5 -44.5q110 0 186.5 45t124 118.5t69 166.5t21.5 188t-22 186.5t-70 163.5t-124 116t-185 44z" />
    <glyph glyph-name="P" unicode="P" 
d="M428 768h107q54 0 102 10.5t84.5 35t58 65.5t21.5 102q0 63 -21.5 105.5t-59 68.5t-87 37.5t-105.5 11.5h-100v-436zM141 1430h371q103 0 209 -19.5t199 -67.5q49 -26 83.5 -63t56 -82.5t31 -96.5t9.5 -104q0 -125 -43 -211.5t-116.5 -140.5t-173 -78t-211.5 -24h-128
v-543h-287v1430z" />
    <glyph glyph-name="Q" unicode="Q" horiz-adv-x="1593" 
d="M1114 -270l-250 250q-17 -2 -33.5 -3.5t-33.5 -1.5q-170 0 -301 54.5t-220 153t-134.5 235.5t-45.5 301q0 166 45.5 301.5t134.5 232t220 149t301 52.5q169 0 299.5 -53t219.5 -150t135 -232t46 -300q0 -107 -19.5 -205.5t-62.5 -184t-111.5 -156t-166.5 -122.5l323 -321
h-346zM797 1229q-108 0 -184.5 -45.5t-125 -118.5t-70.5 -165.5t-22 -186.5q0 -95 22.5 -187t70.5 -164t124.5 -116.5t184.5 -44.5q110 0 186.5 45t124 118.5t69 166.5t21.5 188t-22 186.5t-70 163.5t-124 116t-185 44z" />
    <glyph glyph-name="R" unicode="R" horiz-adv-x="1251" 
d="M141 1430h392q71 0 142.5 -3t137 -15t122.5 -36.5t99 -67.5t66 -108t24 -158q0 -68 -21 -124.5t-60 -99.5t-93.5 -70.5t-120.5 -36.5v-4q30 -4 53.5 -18t42 -34t32 -45t24.5 -51l229 -559h-319l-172 446q-16 41 -31.5 69.5t-37.5 46t-53 25t-77 7.5h-92v-594h-287v1430z
M428 819h94q34 0 74 3t79 13t72.5 28.5t53.5 49.5q14 21 19 50.5t5 54.5q0 69 -27.5 106.5t-71.5 55.5t-98 21t-106 3h-94v-385z" />
    <glyph glyph-name="S" unicode="S" 
d="M934 1167q-69 30 -142.5 46t-148.5 16q-48 0 -89 -12t-71 -36.5t-47.5 -62t-17.5 -88.5q0 -38 21 -66.5t56 -50.5t81 -41t97 -39t102.5 -43t98.5 -54.5t85 -73t61 -97.5q14 -35 19 -77.5t5 -79.5q0 -119 -44 -201.5t-118 -134t-171 -74.5t-203 -23q-94 0 -185 16.5
t-182 39.5l27 258q74 -42 156.5 -65t167.5 -23q41 0 86 10.5t82 33t61 57t24 83.5q0 23 -5.5 46t-18.5 42q-12 17 -32.5 34t-39.5 28q-51 29 -106 51t-109 43q-29 11 -57 25.5t-55 31.5q-50 30 -88 63t-63.5 72.5t-38.5 88t-13 108.5q0 49 8.5 98t27.5 93t49 82.5t72 66.5
q75 51 163.5 73.5t178.5 22.5q88 0 173.5 -12t169.5 -39z" />
    <glyph glyph-name="T" unicode="T" 
d="M426 1204h-410v226h1106v-226h-409v-1204h-287v1204z" />
    <glyph glyph-name="U" unicode="U" horiz-adv-x="1479" 
d="M156 1430h286v-826q0 -76 12.5 -148.5t46 -129t91 -91t147.5 -34.5q91 0 149 34t91 90t45 129t12 150v826h287v-914q0 -144 -40 -246.5t-115 -168t-183.5 -96t-245.5 -30.5t-245 30.5t-183 96t-115 168t-40 246.5v914z" />
    <glyph glyph-name="V" unicode="V" horiz-adv-x="1366" 
d="M20 1430h308l366 -1123h4l363 1123h285l-482 -1430h-352z" />
    <glyph glyph-name="W" unicode="W" horiz-adv-x="2048" 
d="M20 1430h302l266 -1143h4l244 1143h389l252 -1143h4l268 1143h279l-373 -1430h-369l-258 1143h-4l-254 -1143h-371z" />
    <glyph glyph-name="X" unicode="X" horiz-adv-x="1366" 
d="M489 743l-426 687h332l299 -510l305 510h308l-430 -687l469 -743h-338l-330 557l-334 -557h-324z" />
    <glyph glyph-name="Y" unicode="Y" horiz-adv-x="1366" 
d="M545 565l-522 865h335l338 -601l344 601h303l-512 -865v-565h-286v565z" />
    <glyph glyph-name="Z" unicode="Z" 
d="M74 233l671 971h-645v226h951v-234l-678 -971h692v-225h-991v233z" />
    <glyph glyph-name="bracketleft" unicode="[" horiz-adv-x="682" 
d="M147 1548h459v-200h-196v-1434h196v-201h-459v1835z" />
    <glyph glyph-name="backslash" unicode="\" horiz-adv-x="797" 
d="M41 1454h213l500 -1479h-213z" />
    <glyph glyph-name="bracketright" unicode="]" horiz-adv-x="682" 
d="M535 1548v-1835h-459v201h196v1434h-196v200h459z" />
    <glyph glyph-name="asciicircum" unicode="^" horiz-adv-x="1229" 
d="M135 641l383 789h193l383 -789h-213l-267 573l-266 -573h-213z" />
    <glyph glyph-name="underscore" unicode="_" horiz-adv-x="1024" 
d="M1024 -154v-102h-1024v102h1024z" />
    <glyph glyph-name="grave" unicode="`" horiz-adv-x="569" 
d="M510 1198h-170l-281 299h281z" />
    <glyph glyph-name="a" unicode="a" 
d="M188 999q91 40 185 60t194 20q217 0 330 -106.5t113 -326.5q0 -163 2.5 -323t13.5 -323h-242q-5 39 -8.5 78.5t-3.5 79.5h-4q-25 -43 -60.5 -77t-78 -57.5t-90.5 -36t-97 -12.5q-69 0 -135 21t-118 61t-83.5 98.5t-31.5 133.5q0 52 11.5 100t41.5 92q40 58 97 92
t123 51.5t137.5 22.5t140.5 5q35 0 69 -0.5t66 -0.5q0 63 -14 106.5t-43.5 70.5t-74.5 39t-106 12q-91 0 -172.5 -30t-152.5 -85zM336 305q0 -36 16 -60.5t41 -40t56 -22t61 -6.5q66 0 113.5 25.5t77.5 68t44.5 97.5t14.5 114v6h-166q-43 0 -89 -9t-83.5 -30.5t-61.5 -56.5
t-24 -86z" />
    <glyph glyph-name="b" unicode="b" horiz-adv-x="1251" 
d="M664 866q-68 0 -115 -32t-76 -82t-42 -110.5t-13 -117.5q0 -54 14 -113t43 -108.5t75 -82t109 -32.5q67 0 112 33t71.5 83t37.5 110.5t11 115.5t-10 114.5t-35.5 109t-69.5 81t-112 31.5zM141 1536h275v-616h4q57 82 136 120.5t179 38.5q123 0 208 -45t137 -120.5
t75 -175t23 -208.5q0 -108 -23.5 -208t-76 -177.5t-137 -123.5t-206.5 -46q-97 0 -180 38t-143 116h-4v-129h-267v1536z" />
    <glyph glyph-name="c" unicode="c" horiz-adv-x="909" 
d="M825 827q-43 24 -90.5 31.5t-95.5 7.5q-72 0 -124.5 -28t-87 -74.5t-51 -106.5t-16.5 -125q0 -67 16.5 -129t51.5 -110t89 -76.5t128 -28.5q50 0 108 14.5t103 35.5l12 -228q-64 -20 -135.5 -27.5t-138.5 -7.5q-126 0 -223 41.5t-163 116t-100 176.5t-34 223
q0 117 34 217.5t99 173.5t160 114.5t217 41.5q67 0 134.5 -7.5t131.5 -27.5z" />
    <glyph glyph-name="d" unicode="d" horiz-adv-x="1251" 
d="M588 866q-68 0 -112.5 -33t-70 -83.5t-35.5 -111t-10 -115.5q0 -53 12.5 -112t40 -108.5t71.5 -82t108 -32.5q68 0 114 32t74.5 82t41 110.5t12.5 117.5t-13.5 116.5t-43 108t-76.5 80t-113 31.5zM844 119h-4q-66 -75 -145.5 -109.5t-178.5 -34.5q-122 0 -206 46.5
t-136.5 123.5t-76 177.5t-23.5 207.5q0 109 23 208t75.5 175t136.5 121t207 45q97 0 176 -35.5t139 -111.5h5v604h274v-1536h-266v119z" />
    <glyph glyph-name="e" unicode="e" 
d="M803 631q-2 52 -16 97.5t-41 79t-68 52.5t-98 19q-56 0 -99.5 -19t-74.5 -52t-48.5 -78.5t-21.5 -98.5h467zM987 59q-82 -48 -175 -66t-187 -18q-133 0 -235.5 35.5t-172.5 105t-106.5 171.5t-36.5 235q0 115 30 216.5t90.5 177t152.5 119.5t216 44q57 0 114.5 -8.5
t110.5 -29t98 -55t77 -85.5q30 -48 49.5 -103.5t31 -114.5t16.5 -118.5t5 -114.5v-8h-729q5 -63 29.5 -112.5t64 -83.5t92.5 -52t115 -18q94 0 182 30t168 77v-224z" />
    <glyph glyph-name="f" unicode="f" horiz-adv-x="797" 
d="M242 854h-203v201h203v147q0 79 21.5 145t64 113.5t105.5 74t145 26.5q100 0 200 -23l-22 -227q-16 11 -29.5 18t-27 11.5t-28.5 6t-34 1.5q-35 0 -58 -14t-37 -37t-20 -52t-6 -59v-131h240v-201h-240v-854h-274v854z" />
    <glyph glyph-name="g" unicode="g" horiz-adv-x="1251" 
d="M594 213q69 0 115.5 29t74.5 75.5t40 104.5t12 117q0 56 -10.5 114t-36.5 105.5t-70.5 77.5t-112.5 30q-69 0 -116 -29t-76 -76t-41.5 -105.5t-12.5 -116.5q0 -51 14 -108t42.5 -105.5t73 -80.5t104.5 -32zM1110 1055v-953q0 -280 -143 -418.5t-421 -138.5
q-92 0 -181.5 20t-176.5 52l23 233q28 -14 68 -30.5t82.5 -30t84 -22.5t72.5 -9q67 0 122 16t95.5 49.5t65 84.5t30.5 121q3 35 4 69.5t1 69.5h-5q-23 -43 -59.5 -74.5t-80.5 -52.5t-92.5 -31t-94.5 -10q-117 0 -199 44.5t-133 118t-74.5 169.5t-23.5 200q0 102 25.5 193.5
t80.5 177.5q57 89 146.5 132.5t193.5 43.5t184.5 -40.5t139.5 -127.5h4v144h262z" />
    <glyph glyph-name="h" unicode="h" horiz-adv-x="1251" 
d="M141 1536h275v-625h4q57 85 143.5 126.5t188.5 41.5q96 0 164 -31.5t111 -87t63 -131t20 -163.5v-666h-274v563q0 53 -2.5 101.5t-20.5 99.5q-21 59 -58 80.5t-98 21.5q-69 0 -115 -33.5t-74 -85t-40 -113t-12 -118.5v-516h-275v1536z" />
    <glyph glyph-name="i" unicode="i" horiz-adv-x="569" 
d="M147 1055h275v-1055h-275v1055zM147 1509h275v-262h-275v262z" />
    <glyph glyph-name="j" unicode="j" horiz-adv-x="569" 
d="M-20 -242q53 2 86 11t51 29t24 54t6 86v1117h275v-1133q0 -79 -17 -148t-54.5 -120t-98.5 -80t-148 -29q-34 0 -68 4t-67 13zM147 1509h275v-262h-275v262z" />
    <glyph glyph-name="k" unicode="k" 
d="M147 1536h275v-903h4l328 422h323l-393 -471l442 -584h-348l-352 512h-4v-512h-275v1536z" />
    <glyph glyph-name="l" unicode="l" horiz-adv-x="569" 
d="M147 1536h275v-1536h-275v1536z" />
    <glyph glyph-name="m" unicode="m" horiz-adv-x="1821" 
d="M137 1055h256v-148h4q56 81 135 126.5t179 45.5q107 0 185 -43.5t126 -142.5q24 46 59.5 80.5t78.5 58t92 35.5t100 12q98 0 162.5 -30.5t102.5 -84.5t53.5 -128.5t15.5 -161.5v-674h-275v629q0 46 -3.5 88.5t-19 75.5t-47 53t-88.5 20q-45 0 -78 -16.5t-55.5 -44.5
t-36.5 -64.5t-21.5 -76t-10 -79t-2.5 -73.5v-512h-275v629q0 46 -3.5 88.5t-19 75.5t-47 53t-88.5 20q-45 0 -78 -16.5t-55.5 -44.5t-36.5 -64.5t-21.5 -76t-10 -79t-2.5 -73.5v-512h-275v1055z" />
    <glyph glyph-name="n" unicode="n" horiz-adv-x="1251" 
d="M141 1055h260v-144h5q66 86 151.5 127t194.5 41q96 0 164 -31.5t111 -86.5t63 -131t20 -164v-666h-274v563q0 53 -2.5 101.5t-20.5 99.5q-21 59 -58 80.5t-98 21.5q-69 0 -115 -33.5t-74 -85t-40 -113t-12 -118.5v-516h-275v1055z" />
    <glyph glyph-name="o" unicode="o" horiz-adv-x="1251" 
d="M74 520q0 124 39 227t111 176.5t173.5 114.5t227.5 41t228.5 -40.5t174.5 -114t111 -176.5t39 -228q0 -123 -40.5 -224t-113.5 -172t-175 -110t-224 -39t-223 39.5t-174 111t-113.5 172t-40.5 222.5zM360 553q0 -15 1.5 -30.5t3.5 -30.5q6 -41 13 -79.5t21.5 -72.5
t37.5 -63.5t61 -53.5q30 -20 61 -27.5t66 -7.5q81 0 132.5 32t81 83.5t41 117t11.5 132.5q0 63 -16 119.5t-48.5 99.5t-82.5 68.5t-119 25.5q-66 0 -115.5 -26.5t-82.5 -70t-50 -100t-17 -116.5z" />
    <glyph glyph-name="p" unicode="p" horiz-adv-x="1251" 
d="M141 1055h262v-150h5q24 46 59.5 79t78 54t91 31t98.5 10q123 0 208 -45t137 -120.5t75 -175t23 -208.5q0 -110 -23.5 -210.5t-77 -177t-139 -122t-209.5 -45.5q-98 0 -171.5 36.5t-137.5 109.5h-4v-551h-275v1485zM664 866q-68 0 -115 -32t-76 -82t-42 -110.5
t-13 -117.5q0 -54 14 -113t43 -108.5t75 -82t109 -32.5q68 0 112.5 33t71 83t37.5 110.5t11 115.5t-10 114.5t-35.5 109t-69.5 81t-112 31.5z" />
    <glyph glyph-name="q" unicode="q" horiz-adv-x="1251" 
d="M836 121h-5q-63 -76 -136.5 -111t-172.5 -35q-122 0 -207.5 46t-139 123t-77.5 177.5t-24 208.5q0 109 24 208.5t77 175.5t138.5 120.5t208.5 44.5q101 0 186.5 -41.5t135.5 -132.5h4v150h262v-1485h-274v551zM588 866q-68 0 -112.5 -33t-70 -83.5t-35.5 -111t-10 -115.5
q0 -53 12.5 -112t40 -108.5t71.5 -82t108 -32.5q68 0 114 32t74.5 82t41 110.5t12.5 117.5t-13.5 116.5t-43 108t-76.5 80t-113 31.5z" />
    <glyph glyph-name="r" unicode="r" horiz-adv-x="797" 
d="M147 1055h244v-240h4q8 49 33 91t57 79q38 44 89.5 69t109.5 25q21 0 42 -2t42 -6v-276q-28 14 -60.5 18t-62.5 4q-55 0 -92.5 -21t-62 -55.5t-38.5 -79.5t-20.5 -92.5t-8 -95t-1.5 -86.5v-387h-275v1055z" />
    <glyph glyph-name="s" unicode="s" horiz-adv-x="909" 
d="M768 834q-63 24 -121 34.5t-125 10.5q-28 0 -57 -5.5t-52 -19t-38 -36t-15 -56.5q0 -31 20.5 -50.5t54 -33.5t76.5 -26t88 -27.5t88 -38t76.5 -57.5t54 -86t20.5 -124q0 -94 -38.5 -159.5t-101 -106.5t-142 -59.5t-161.5 -18.5q-79 0 -157 12t-154 33l16 226
q128 -70 271 -70q30 0 61.5 7t58 22.5t43.5 40t17 59.5q0 17 -4 35.5t-15 32.5q-16 21 -43.5 34.5t-63 25t-75 22t-78.5 25.5t-75 36.5t-63 53t-43.5 76t-16.5 106.5q0 87 35.5 149t93.5 101.5t132.5 58t151.5 18.5q78 0 151 -9.5t148 -29.5z" />
    <glyph glyph-name="t" unicode="t" horiz-adv-x="797" 
d="M565 -25q-82 0 -144.5 23t-104.5 67t-63.5 107.5t-21.5 144.5v537h-202v201h202v211l275 88v-299h244v-201h-244v-500q0 -32 6.5 -61.5t21.5 -53t40 -37.5t61 -14q32 0 64.5 6t60.5 23l8 -217q-49 -15 -100.5 -20t-102.5 -5z" />
    <glyph glyph-name="u" unicode="u" horiz-adv-x="1251" 
d="M1110 0h-260v143h-4q-64 -81 -153 -124.5t-193 -43.5q-94 0 -161.5 32t-111.5 88t-65 131.5t-21 162.5v666h275v-563q0 -12 1.5 -24t2.5 -24q3 -38 4.5 -76.5t15.5 -74.5q19 -51 59.5 -78t94.5 -27q71 0 118 33t74.5 84.5t38.5 113.5t11 120v516h274v-1055z" />
    <glyph glyph-name="v" unicode="v" 
d="M25 1055h294l263 -768h4l254 768h274l-389 -1055h-309z" />
    <glyph glyph-name="w" unicode="w" horiz-adv-x="1821" 
d="M23 1055h290l234 -781h4l213 781h319l230 -781h4l219 781h262l-323 -1055h-324l-229 805h-4l-226 -805h-313z" />
    <glyph glyph-name="x" unicode="x" 
d="M55 1055h324l207 -344l202 344h291l-315 -502l356 -553h-327l-236 393l-238 -393h-301l363 553z" />
    <glyph glyph-name="y" unicode="y" 
d="M580 285h4l254 770h278l-395 -1047q-21 -56 -41.5 -112.5t-45 -107.5t-55.5 -95.5t-72.5 -77.5t-96.5 -51.5t-127 -18.5q-99 0 -195 29l18 203q32 -13 70.5 -16t71.5 -3q38 0 71.5 13t59.5 41q21 23 32 51.5t14 60.5q0 1 1 11.5t0 11.5l-403 1108h303z" />
    <glyph glyph-name="z" unicode="z" horiz-adv-x="1024" 
d="M96 1055h836v-226l-524 -616h542v-213h-876v223l534 619h-512v213z" />
    <glyph glyph-name="braceleft" unicode="{" horiz-adv-x="682" 
d="M37 719q32 -2 62 10.5t53 32.5q33 29 43 67t10 80v363q0 62 22 118t74 93q46 32 98.5 48.5t108.5 16.5h154v-164h-63q-34 0 -59 -3.5t-41 -18t-24 -42t-8 -75.5v-364q0 -26 -4.5 -53t-14 -53t-24.5 -48.5t-37 -38.5q-32 -23 -71.5 -38t-77.5 -17v-4q60 -3 103.5 -22.5
t71.5 -54t41 -81.5t13 -104v-340q0 -53 7.5 -83t24 -45t44 -18.5t67.5 -3.5h52v-164h-154q-60 0 -110.5 16.5t-98.5 53.5q-51 39 -72.5 91.5t-21.5 115.5v348q0 41 -8.5 78.5t-28.5 65.5t-52 44.5t-79 16.5v176z" />
    <glyph glyph-name="bar" unicode="|" horiz-adv-x="455" 
d="M334 1536v-2048h-213v2048h213z" />
    <glyph glyph-name="braceright" unicode="}" horiz-adv-x="682" 
d="M645 543q-28 0 -58.5 -11t-51.5 -30q-16 -14 -27 -34t-18 -42t-10 -45t-3 -43v-348q0 -61 -20.5 -116t-71.5 -93q-47 -35 -100 -51.5t-111 -16.5h-154v164h56q39 0 66 3.5t43 18.5t23 45t7 83v340q0 27 4.5 57t14 58.5t25.5 53.5t40 42q30 23 68.5 37t76.5 14v4
q-71 10 -120 38t-82 93q-15 29 -21 56.5t-6 60.5v354q0 11 -0.5 26t-2.5 30.5t-5 30t-8 24.5q-14 26 -46.5 33t-66.5 7q-20 0 -37 -1t-29 -1v164h154q57 0 111 -15.5t100 -49.5q50 -37 71 -94t21 -117v-363q0 -42 12 -81t46 -66q25 -20 51 -32t59 -11v-176z" />
    <glyph glyph-name="asciitilde" unicode="~" horiz-adv-x="1229" 
d="M141 516q18 37 43 69.5t56.5 57t68.5 39t80 14.5q34 0 68.5 -4.5t66.5 -15.5q38 -13 77.5 -34t80 -40.5t81.5 -34t81 -14.5q28 0 53 15t47 37t39.5 48t30.5 47l73 -180q-17 -32 -41.5 -64t-54.5 -58t-65 -42t-74 -16q-51 0 -94.5 12.5t-83.5 31.5t-79.5 40.5t-82.5 38.5
q-28 11 -60 15.5t-61 4.5q-35 0 -62 -12.5t-48 -32.5t-37 -47t-29 -55z" />
    <glyph glyph-name="exclamdown" unicode="&#xa1;" horiz-adv-x="797" 
d="M283 635h227l45 -1010h-315zM252 1055h287v-287h-287v287z" />
    <glyph glyph-name="cent" unicode="&#xa2;" 
d="M702 866q-65 -8 -110 -39.5t-74 -77.5t-42 -102.5t-13 -114.5q0 -63 15 -123t50 -112zM940 1245l-57 -186q37 -5 69 -15l-24 -217q-26 13 -52.5 20.5t-54.5 12.5l-198 -645q29 -15 61 -21t64 -6q24 0 51.5 4t55.5 10.5t54.5 15.5t48.5 20l13 -228q-65 -20 -136 -27.5
t-139 -7.5q-70 0 -143 17l-55 -176h-119l65 213q-74 40 -125 93t-82.5 117.5t-46 138t-14.5 154.5q0 117 34 217.5t99 173.5t160 114.5t217 41.5q20 0 41 -1t41 -3l53 170h119z" />
    <glyph glyph-name="sterling" unicode="&#xa3;" 
d="M111 213h180v449h-156v163h156v172q0 105 39 189.5t106 144t156 91.5t190 32q66 0 134.5 -7t132.5 -28l-15 -225q-50 17 -98 26t-100 9q-60 0 -108 -19t-81.5 -54t-51 -84t-17.5 -109v-138h301v-163h-301v-449h456v-213h-923v213z" />
    <glyph glyph-name="currency" unicode="&#xa4;" 
d="M1102 1130l-119 -118q46 -66 70 -138.5t24 -152.5q0 -81 -24.5 -154.5t-69.5 -140.5l119 -119l-121 -121l-119 119q-66 -46 -139 -70t-154 -24t-154 24t-139 70l-118 -119l-121 121l119 119q-45 66 -70 139t-25 154t24.5 154t70.5 139l-119 118l121 121l118 -118
q66 46 139 70t154 24t154 -24t139 -70l119 118zM287 719q0 -58 21.5 -111.5t59.5 -94t89.5 -65t111.5 -24.5t112 24t90 64.5t59.5 94t21.5 112.5q0 60 -21 113.5t-59 94t-90 64t-113 23.5q-60 0 -112 -24t-89.5 -64.5t-59 -94t-21.5 -112.5z" />
    <glyph glyph-name="yen" unicode="&#xa5;" 
d="M807 756h201v-164h-287l-14 -27v-100h301v-164h-301v-301h-275v301h-301v164h301v100l-16 27h-285v164h205l-356 674h288l310 -631l315 631h268z" />
    <glyph glyph-name="brokenbar" unicode="&#xa6;" horiz-adv-x="455" 
d="M334 1382v-716h-213v716h213zM334 358v-716h-213v716h213z" />
    <glyph glyph-name="section" unicode="&#xa7;" 
d="M348 633q0 -40 31.5 -70.5t75 -54t90 -40t76.5 -28.5q26 -10 50.5 -22t47.5 -27q74 60 74 154q0 25 -7.5 47.5t-25.5 40.5q-24 24 -67 45.5t-92 40.5t-97 35t-82 30q-17 -11 -30.5 -28.5t-23.5 -38.5t-15 -43t-5 -41zM901 1190q-141 51 -293 51q-36 0 -71 -5.5t-62.5 -21
t-45 -42.5t-17.5 -70q0 -41 25.5 -68.5t67.5 -49t95 -39.5t109 -38t109 -45.5t95 -62.5t67.5 -88.5t25.5 -122.5q0 -87 -39 -152t-113 -110q65 -40 102 -98t37 -136q0 -61 -18 -112.5t-50 -92.5t-75.5 -72t-93.5 -52t-105 -31.5t-110 -10.5q-95 0 -191.5 16.5t-187.5 43.5
l18 233q80 -36 168 -58t176 -22q36 0 73 5.5t66.5 21t48.5 43.5t19 72q0 30 -15.5 54.5t-41 44t-58 34.5t-65.5 27.5t-63.5 22t-53.5 17.5q-28 10 -54 23.5t-52 26.5q-42 21 -77.5 45t-61 54t-40 69t-14.5 90q0 91 38.5 161t119.5 115q-66 45 -104.5 103.5t-38.5 140.5
q0 91 40 157t103.5 109t143 63.5t159.5 20.5q83 0 165 -10.5t163 -30.5z" />
    <glyph glyph-name="dieresis" unicode="&#xa8;" horiz-adv-x="569" 
d="M614 1485v-238h-237v238h237zM-45 1247v238h238v-238h-238z" />
    <glyph glyph-name="copyright" unicode="&#xa9;" horiz-adv-x="1638" 
d="M1346 715q0 117 -36 221.5t-104 183t-166 124.5t-221 46t-220.5 -46t-165.5 -124.5t-104 -183t-36 -221.5q0 -118 35.5 -222.5t117.5 -191.5q77 -81 169 -121.5t204 -40.5q122 0 219.5 46.5t166 125.5t105 183.5t36.5 220.5zM1206 596q-11 -71 -41.5 -128t-77 -98
t-107 -63t-132.5 -22q-95 0 -172 33.5t-132 92t-84.5 138.5t-29.5 172q0 94 28 174t81.5 138.5t130 91t174.5 32.5q149 0 241 -80.5t115 -226.5h-164q-14 78 -65.5 110.5t-126.5 32.5q-58 0 -98.5 -23t-66 -61t-37 -86.5t-11.5 -99.5q0 -48 13.5 -97t40.5 -88t67.5 -64
t95.5 -25q36 0 68.5 8.5t58 26.5t42 45.5t19.5 66.5h170zM80 715q0 102 26.5 196.5t74 176.5t115 149.5t149.5 115.5t176.5 74.5t197.5 26.5t198.5 -26t177.5 -73.5t149 -114.5t115 -149.5t74 -177.5t26 -198q0 -102 -26.5 -196.5t-74.5 -177t-116 -150t-150 -115.5
t-176.5 -74.5t-196.5 -26.5q-101 0 -195 27t-176.5 75.5t-150 116t-116 150t-75 176.5t-26.5 195z" />
    <glyph glyph-name="ordfeminine" unicode="&#xaa;" horiz-adv-x="739" 
d="M510 803l-6 86h-4q-13 -30 -33.5 -50t-46 -31.5t-54.5 -16.5t-59 -5q-41 0 -85 10t-81 32t-60.5 56.5t-23.5 82.5q0 52 19.5 92t52.5 68t76.5 44t91.5 21q30 3 59.5 3.5t59.5 0.5h80q0 41 -9 67t-27.5 41t-47 21t-66.5 6q-57 0 -112 -16.5t-103 -46.5v135q63 29 126 40
t132 11q141 0 212 -67.5t71 -210.5q0 -94 2 -186.5t8 -186.5h-172zM233 977q0 -20 11 -33t27 -20.5t34.5 -11t34.5 -3.5q39 0 68.5 14t49.5 38t30 56t10 68h-125q-26 0 -51 -6t-44.5 -19t-32 -33.5t-12.5 -49.5z" />
    <glyph glyph-name="guillemotleft" unicode="&#xab;" 
d="M799 971h258l-226 -420l226 -420h-258l-242 420zM342 971h258l-225 -420l225 -420h-258l-242 420z" />
    <glyph glyph-name="logicalnot" unicode="&#xac;" horiz-adv-x="1229" 
d="M922 635h-828v213h1041v-627h-213v414z" />
    <glyph glyph-name="registered" unicode="&#xae;" horiz-adv-x="1638" 
d="M80 715q0 102 26.5 196.5t74 176.5t115 149.5t149.5 115.5t176.5 74.5t197.5 26.5t198.5 -26t177.5 -73.5t149 -114.5t115 -149.5t74 -177.5t26 -198q0 -102 -26.5 -196.5t-74.5 -177t-116 -150t-150 -115.5t-176.5 -74.5t-196.5 -26.5q-101 0 -195 27t-176.5 75.5
t-150 116t-116 150t-75 176.5t-26.5 195zM293 715q0 -118 35.5 -222.5t117.5 -191.5q77 -81 169 -121.5t204 -40.5q122 0 219.5 46.5t166 125.5t105 183.5t36.5 220.5q0 117 -36 221.5t-104 183t-166 124.5t-221 46t-220.5 -46t-165.5 -124.5t-104 -183t-36 -221.5z
M522 1128h309q66 0 125.5 -9t104.5 -35.5t71.5 -74.5t26.5 -126q0 -106 -57.5 -158.5t-159.5 -60.5l217 -357h-180l-197 348h-84v-348h-176v821zM856 791q58 0 92.5 22.5t34.5 85.5q0 33 -15.5 52t-39 28.5t-52 11.5t-53.5 2h-125v-202h158z" />
    <glyph glyph-name="macron" unicode="&#xaf;" horiz-adv-x="569" 
d="M-10 1266v164h590v-164h-590z" />
    <glyph glyph-name="degree" unicode="&#xb0;" horiz-adv-x="819" 
d="M410 1305q-40 0 -73.5 -13.5t-57.5 -37.5t-37 -57t-13 -73t13.5 -73t37.5 -57t57 -37t73 -13t73 13t57 37t37 57t13 73t-13 73.5t-36.5 57.5t-57 37t-73.5 13zM410 1454q69 0 129.5 -25.5t104.5 -70t69.5 -105t25.5 -129.5q0 -70 -25.5 -130t-69.5 -104.5t-104 -69.5
t-130 -25q-71 0 -131.5 24.5t-104.5 68.5t-69 104t-25 132q0 69 25.5 129t70.5 104.5t105 70.5t129 26z" />
    <glyph glyph-name="plusminus" unicode="&#xb1;" horiz-adv-x="1229" 
d="M508 1036h213v-270h414v-213h-414v-272h-213v272h-414v213h414v270zM94 213h1041v-213h-1041v213z" />
    <glyph glyph-name="twosuperior" unicode="&#xb2;" horiz-adv-x="739" 
d="M61 578v167q27 12 65.5 40t80.5 65t83 80.5t74 86.5t53.5 83t20.5 71q0 58 -35.5 82.5t-89.5 24.5q-118 0 -215 -70l-14 178q64 34 134 51t142 17q66 0 124 -13.5t100.5 -45t67 -82t24.5 -123.5q0 -40 -16 -83t-43.5 -85.5t-62.5 -83.5t-73.5 -75.5t-77.5 -61.5t-73 -43
v-4h350v-176h-619z" />
    <glyph glyph-name="threesuperior" unicode="&#xb3;" horiz-adv-x="739" 
d="M84 1405q64 23 130 36t134 13q35 0 77 -5.5t83 -18t76.5 -32.5t58.5 -50q17 -22 24 -50t7 -55q0 -87 -44 -139.5t-126 -75.5v-4q87 -8 134.5 -58.5t47.5 -138.5q0 -73 -36 -123t-91 -81t-121 -44.5t-127 -13.5q-66 0 -130.5 9.5t-127.5 25.5l10 170q54 -18 109.5 -29.5
t112.5 -11.5q22 0 50.5 6t54 18.5t42.5 32.5t17 48q0 33 -13.5 52.5t-35.5 30t-48.5 14t-52.5 3.5q-29 0 -57.5 -1t-57.5 -5v172q14 -1 33.5 -1.5t41.5 -0.5q32 0 65.5 3.5t61.5 14t45.5 29.5t17.5 51q0 30 -11.5 48.5t-30 28.5t-42 13.5t-48.5 3.5q-59 0 -115.5 -11.5
t-107.5 -41.5z" />
    <glyph glyph-name="acute" unicode="&#xb4;" horiz-adv-x="569" 
d="M229 1497h281l-281 -299h-170z" />
    <glyph glyph-name="uni00B5" unicode="&#xb5;" horiz-adv-x="1251" 
d="M141 1055h275v-563q0 -12 1.5 -24t2.5 -24q2 -13 1.5 -25.5t0.5 -25.5q3 -41 12.5 -78t29.5 -65t51.5 -45t78.5 -17q71 0 118 33t74.5 84.5t38.5 113.5t11 120v516h274v-1055h-260v143h-4q-13 -33 -36.5 -63t-54 -53.5t-66 -37.5t-71.5 -14q-57 0 -107 14t-91 56h-4v-475
h-275v1485z" />
    <glyph glyph-name="paragraph" unicode="&#xb6;" horiz-adv-x="1270" 
d="M453 698q-89 2 -170.5 20t-143.5 59.5t-98.5 109.5t-36.5 170q0 111 39.5 183.5t106 114.5t154.5 58.5t184 16.5h608v-1684h-213v1520h-217v-1520h-213v952z" />
    <glyph glyph-name="periodcentered" unicode="&#xb7;" horiz-adv-x="569" 
d="M285 424q-35 0 -64 11.5t-50 32.5t-32.5 50t-11.5 64t11.5 64t32.5 49.5t50 32t64 11.5q72 0 114.5 -42.5t42.5 -114.5t-42.5 -115t-114.5 -43z" />
    <glyph glyph-name="cedilla" unicode="&#xb8;" horiz-adv-x="569" 
d="M195 -301q34 -9 70.5 -20t72.5 -11q17 0 36 3.5t35 12t26.5 22t10.5 34.5q0 38 -24.5 56t-59.5 18q-24 0 -47 -4t-45 -15l-30 53l120 152h129l-94 -109l4 -4q20 8 41.5 10.5t42.5 2.5q33 0 63 -8.5t52.5 -26.5t35.5 -44.5t13 -62.5q0 -55 -21.5 -95t-57 -66.5t-81.5 -39
t-96 -12.5q-26 0 -57.5 2.5t-63.5 8t-62 13.5t-54 19z" />
    <glyph glyph-name="onesuperior" unicode="&#xb9;" horiz-adv-x="739" 
d="M309 1442h193v-864h-213v655l-158 -121l-106 125z" />
    <glyph glyph-name="ordmasculine" unicode="&#xba;" horiz-adv-x="813" 
d="M410 1454q75 0 140.5 -22.5t114 -65.5t77 -104.5t28.5 -139.5q0 -79 -28 -141.5t-77 -105.5t-115 -66t-142 -23q-74 0 -140.5 23t-116.5 66.5t-79 106t-29 140.5t29.5 139.5t80 104.5t117 65.5t140.5 22.5zM414 1331q-49 0 -81.5 -18t-52 -48t-28 -69t-8.5 -81t8.5 -79.5
t28 -65.5t51 -44.5t78.5 -16.5q49 0 80 17.5t48.5 47t24 68t6.5 80.5q0 39 -7 76.5t-24.5 67t-47.5 47.5t-76 18z" />
    <glyph glyph-name="guillemotright" unicode="&#xbb;" 
d="M340 131h-258l225 420l-225 420h258l242 -420zM797 131h-258l225 420l-225 420h258l241 -420z" />
    <glyph glyph-name="onequarter" unicode="&#xbc;" horiz-adv-x="1708" 
d="M1190 1475h168l-854 -1520h-168zM326 1442h192v-864h-213v655l-158 -121l-106 125zM1343 326v350h-4l-233 -350h237zM932 336l368 528h256v-538h99v-164h-99v-162h-213v162h-411v174z" />
    <glyph glyph-name="onehalf" unicode="&#xbd;" horiz-adv-x="1708" 
d="M1128 1475h168l-854 -1520h-168zM305 1442h193v-864h-213v655l-158 -123l-107 125zM1022 168q27 11 65 38.5t80 65t83.5 81t74.5 87.5t53.5 84t20.5 70q0 29 -9.5 49t-26.5 33t-39.5 18.5t-49.5 5.5q-59 0 -113 -17t-102 -52l-15 178q130 68 277 68q66 0 123.5 -14
t100 -45.5t67 -82t24.5 -123.5q0 -40 -16 -83t-43 -86t-62.5 -83t-74 -75t-77.5 -62t-73 -43v-4h350v-176h-618v168z" />
    <glyph glyph-name="threequarters" unicode="&#xbe;" horiz-adv-x="1708" 
d="M1214 1475h168l-854 -1520h-168zM59 1405q64 23 130.5 36t134.5 13q50 0 107 -9.5t105.5 -33.5t80.5 -65t32 -103q0 -87 -44 -139.5t-126 -75.5v-4q86 -7 134.5 -58t48.5 -139q0 -73 -36 -123t-91 -81t-121 -44.5t-127 -13.5q-66 0 -130.5 9.5t-127.5 25.5l10 170
q57 -20 115 -30.5t118 -10.5q23 0 51.5 5.5t53.5 18.5t42 32.5t17 48.5q0 33 -16 52.5t-40 30t-52.5 14t-53.5 3.5q-29 0 -57 -1t-57 -5v172q15 -1 35.5 -1.5t43.5 -0.5q33 0 67.5 3.5t63.5 14t47.5 29.5t18.5 51q0 30 -13 48.5t-34 28.5t-46.5 13.5t-49.5 3.5
q-59 0 -115.5 -11t-107.5 -42zM1368 676h-4l-229 -350h233v350zM1581 0h-213v162h-412v174l369 528h256v-538h98v-164h-98v-162z" />
    <glyph glyph-name="questiondown" unicode="&#xbf;" horiz-adv-x="1024" 
d="M922 -332q-96 -40 -199.5 -53.5t-206.5 -13.5q-88 0 -167 20t-154 66q-78 48 -112 119t-34 161q0 69 26 126t64.5 107.5t84 97t84 95.5t64.5 103.5t26 119.5q0 5 -0.5 10.5t-0.5 10.5h252q-1 -59 -10 -118t-35 -113q-20 -42 -46 -80.5t-58 -71.5q-26 -27 -52.5 -55
t-49 -59t-36.5 -65.5t-14 -74.5q0 -49 21 -84t54.5 -57.5t75.5 -33.5t85 -11q83 0 163 21.5t152 60.5zM664 768h-287v287h287v-287z" />
    <glyph glyph-name="Agrave" unicode="&#xc0;" horiz-adv-x="1479" 
d="M733 1143h-4l-207 -590h418zM575 1430h324l561 -1430h-317l-123 328h-580l-125 -328h-297zM920 1522h-170l-281 299h281z" />
    <glyph glyph-name="Aacute" unicode="&#xc1;" horiz-adv-x="1479" 
d="M733 1143h-4l-207 -590h418zM575 1430h324l561 -1430h-317l-123 328h-580l-125 -328h-297zM757 1821h281l-281 -299h-170z" />
    <glyph glyph-name="Acircumflex" unicode="&#xc2;" horiz-adv-x="1479" 
d="M733 1143h-4l-207 -590h418zM575 1430h324l561 -1430h-317l-123 328h-580l-125 -328h-297zM860 1821l215 -299h-182l-139 176l-144 -176h-182l225 299h207z" />
    <glyph glyph-name="Atilde" unicode="&#xc3;" horiz-adv-x="1479" 
d="M733 1143h-4l-207 -590h418zM575 1430h324l561 -1430h-317l-123 328h-580l-125 -328h-297zM387 1559q1 43 16 87t42 80t65 58.5t86 22.5q45 0 86.5 -13.5t81 -29.5t76 -29.5t71.5 -13.5q47 0 69 28t22 72h110q0 -46 -11.5 -90.5t-35.5 -79.5t-61.5 -56.5t-89.5 -21.5
q-43 0 -90 10t-87 27q-34 14 -67.5 26.5t-71.5 12.5q-40 0 -70 -23.5t-30 -66.5h-111z" />
    <glyph glyph-name="Adieresis" unicode="&#xc4;" horiz-adv-x="1479" 
d="M733 1143h-4l-207 -590h418zM575 1430h324l561 -1430h-317l-123 328h-580l-125 -328h-297zM1081 1809v-238h-237v238h237zM422 1571v238h238v-238h-238z" />
    <glyph glyph-name="Aring" unicode="&#xc5;" horiz-adv-x="1479" 
d="M733 1143h-4l-207 -590h418zM575 1430h324l561 -1430h-317l-123 328h-580l-125 -328h-297zM537 1696q0 45 17.5 84.5t47.5 69.5t69.5 47.5t84.5 17.5q46 0 86 -17t69 -46.5t45.5 -69.5t16.5 -86q0 -45 -17 -85t-46 -69t-69 -46t-85 -17q-44 0 -83.5 17.5t-69.5 47t-48 69
t-18 83.5zM647 1696q0 -22 9 -41.5t24 -34t34.5 -23t41.5 -8.5q47 0 76.5 30.5t29.5 76.5q0 50 -27.5 79t-78.5 29q-48 0 -78.5 -30t-30.5 -78z" />
    <glyph glyph-name="AE" unicode="&#xc6;" horiz-adv-x="1935" 
d="M801 1430h1022v-226h-555l28 -352h482v-225h-457l33 -402h477v-225h-756l-24 328h-549l-176 -328h-308zM983 1217h-4l-354 -664h405z" />
    <glyph glyph-name="Ccedilla" unicode="&#xc7;" horiz-adv-x="1251" 
d="M1206 20q-79 -22 -161 -33.5t-164 -11.5q-8 0 -14.5 0.5t-14.5 1.5l-74 -86l4 -4q20 8 41.5 10.5t42.5 2.5q33 0 63 -8.5t52.5 -26.5t35.5 -44.5t13 -62.5q0 -55 -21.5 -95t-57 -66.5t-81.5 -39t-96 -12.5q-26 0 -57.5 2.5t-63.5 8t-62.5 13.5t-53.5 19l41 111
q35 -9 71 -20t72 -11q16 0 35 3.5t35.5 12t27 22t10.5 34.5q0 38 -24.5 56t-59.5 18q-24 0 -47 -4t-45 -15l-30 53l110 140q-114 10 -212.5 42.5t-177 90t-134 142t-84.5 200.5q-14 55 -21.5 112.5t-7.5 114.5q0 56 6.5 113t18.5 111q31 147 101 249.5t169 167t223.5 94
t266.5 29.5q83 0 164 -16t159 -43l-20 -242q-41 23 -77 37.5t-72.5 23t-75.5 12t-85 3.5q-113 0 -202 -40.5t-150.5 -110.5t-94 -164.5t-32.5 -202.5q0 -110 33.5 -203.5t96 -161.5t152.5 -106.5t204 -38.5q35 0 76.5 3.5t83.5 11t81.5 18.5t71.5 26z" />
    <glyph glyph-name="Egrave" unicode="&#xc8;" 
d="M166 1430h844v-226h-557v-352h510v-225h-510v-402h561v-225h-848v1430zM741 1522h-170l-281 299h281z" />
    <glyph glyph-name="Eacute" unicode="&#xc9;" 
d="M166 1430h844v-226h-557v-352h510v-225h-510v-402h561v-225h-848v1430zM579 1821h281l-281 -299h-170z" />
    <glyph glyph-name="Ecircumflex" unicode="&#xca;" 
d="M166 1430h844v-226h-557v-352h510v-225h-510v-402h561v-225h-848v1430zM682 1821l215 -299h-182l-139 176l-144 -176h-182l225 299h207z" />
    <glyph glyph-name="Edieresis" unicode="&#xcb;" 
d="M166 1430h844v-226h-557v-352h510v-225h-510v-402h561v-225h-848v1430zM903 1809v-238h-237v238h237zM244 1571v238h238v-238h-238z" />
    <glyph glyph-name="Igrave" unicode="&#xcc;" horiz-adv-x="569" 
d="M141 1430h287v-1430h-287v1430zM454 1522h-170l-281 299h281z" />
    <glyph glyph-name="Iacute" unicode="&#xcd;" horiz-adv-x="569" 
d="M141 1430h287v-1430h-287v1430zM284 1821h281l-281 -299h-170z" />
    <glyph glyph-name="Icircumflex" unicode="&#xce;" horiz-adv-x="569" 
d="M141 1430h287v-1430h-287v1430zM392 1821l215 -299h-182l-139 176l-144 -176h-182l225 299h207z" />
    <glyph glyph-name="Idieresis" unicode="&#xcf;" horiz-adv-x="569" 
d="M141 1430h287v-1430h-287v1430zM613 1809v-238h-237v238h237zM-46 1571v238h238v-238h-238z" />
    <glyph glyph-name="Eth" unicode="&#xd0;" horiz-adv-x="1479" 
d="M166 688h-131v176h131v566h411q70 0 143.5 -7.5t146 -25t140.5 -45t128 -66.5q72 -48 119.5 -112.5t76 -139.5t40 -156.5t11.5 -162.5q0 -199 -60.5 -335.5t-169 -221t-260.5 -121.5t-335 -37h-391v688zM453 225h159q106 0 192.5 37.5t148.5 103.5t96 155.5t34 193.5
t-33.5 193.5t-95.5 155t-149 103t-193 37.5h-159v-340h299v-176h-299v-463z" />
    <glyph glyph-name="Ntilde" unicode="&#xd1;" horiz-adv-x="1479" 
d="M152 1430h352l545 -1070h4v1070h274v-1430h-350l-547 1069h-4v-1069h-274v1430zM385 1559q1 43 16 87t42 80t65 58.5t86 22.5q45 0 86.5 -13.5t81 -29.5t76 -29.5t71.5 -13.5q47 0 69 28t22 72h110q0 -46 -11.5 -90.5t-35.5 -79.5t-61.5 -56.5t-89.5 -21.5q-43 0 -90 10
t-87 27q-34 14 -67.5 26.5t-71.5 12.5q-40 0 -70 -23.5t-30 -66.5h-111z" />
    <glyph glyph-name="Ograve" unicode="&#xd2;" horiz-adv-x="1593" 
d="M96 719q0 166 45.5 301.5t134.5 232t220 149t301 52.5q169 0 299.5 -53t219.5 -150t135 -232t46 -300q0 -164 -46 -300.5t-134.5 -235t-219.5 -153.5t-300 -55q-170 0 -301 54.5t-220 153t-134.5 235t-45.5 301.5zM797 1229q-108 0 -184.5 -45.5t-125 -118.5
t-70.5 -165.5t-22 -186.5q0 -95 22.5 -187t70.5 -164t124.5 -116.5t184.5 -44.5q110 0 186.5 45t124 118.5t69 166.5t21.5 188t-22 186.5t-70 163.5t-124 116t-185 44zM979 1522h-170l-281 299h281z" />
    <glyph glyph-name="Oacute" unicode="&#xd3;" horiz-adv-x="1593" 
d="M96 719q0 166 45.5 301.5t134.5 232t220 149t301 52.5q169 0 299.5 -53t219.5 -150t135 -232t46 -300q0 -164 -46 -300.5t-134.5 -235t-219.5 -153.5t-300 -55q-170 0 -301 54.5t-220 153t-134.5 235t-45.5 301.5zM797 1229q-108 0 -184.5 -45.5t-125 -118.5
t-70.5 -165.5t-22 -186.5q0 -95 22.5 -187t70.5 -164t124.5 -116.5t184.5 -44.5q110 0 186.5 45t124 118.5t69 166.5t21.5 188t-22 186.5t-70 163.5t-124 116t-185 44zM815 1821h281l-281 -299h-170z" />
    <glyph glyph-name="Ocircumflex" unicode="&#xd4;" horiz-adv-x="1593" 
d="M96 719q0 166 45.5 301.5t134.5 232t220 149t301 52.5q169 0 299.5 -53t219.5 -150t135 -232t46 -300q0 -164 -46 -300.5t-134.5 -235t-219.5 -153.5t-300 -55q-170 0 -301 54.5t-220 153t-134.5 235t-45.5 301.5zM797 1229q-108 0 -184.5 -45.5t-125 -118.5
t-70.5 -165.5t-22 -186.5q0 -95 22.5 -187t70.5 -164t124.5 -116.5t184.5 -44.5q110 0 186.5 45t124 118.5t69 166.5t21.5 188t-22 186.5t-70 163.5t-124 116t-185 44zM917 1821l215 -299h-182l-139 176l-144 -176h-182l225 299h207z" />
    <glyph glyph-name="Otilde" unicode="&#xd5;" horiz-adv-x="1593" 
d="M96 719q0 166 45.5 301.5t134.5 232t220 149t301 52.5q169 0 299.5 -53t219.5 -150t135 -232t46 -300q0 -164 -46 -300.5t-134.5 -235t-219.5 -153.5t-300 -55q-170 0 -301 54.5t-220 153t-134.5 235t-45.5 301.5zM797 1229q-108 0 -184.5 -45.5t-125 -118.5
t-70.5 -165.5t-22 -186.5q0 -95 22.5 -187t70.5 -164t124.5 -116.5t184.5 -44.5q110 0 186.5 45t124 118.5t69 166.5t21.5 188t-22 186.5t-70 163.5t-124 116t-185 44zM444 1559q1 43 16 87t42 80t65 58.5t86 22.5q45 0 86.5 -13.5t81 -29.5t76 -29.5t71.5 -13.5q47 0 69 28
t22 72h110q0 -46 -11.5 -90.5t-35.5 -79.5t-61.5 -56.5t-89.5 -21.5q-43 0 -90 10t-87 27q-34 14 -67.5 26.5t-71.5 12.5q-40 0 -70 -23.5t-30 -66.5h-111z" />
    <glyph glyph-name="Odieresis" unicode="&#xd6;" horiz-adv-x="1593" 
d="M96 719q0 166 45.5 301.5t134.5 232t220 149t301 52.5q169 0 299.5 -53t219.5 -150t135 -232t46 -300q0 -164 -46 -300.5t-134.5 -235t-219.5 -153.5t-300 -55q-170 0 -301 54.5t-220 153t-134.5 235t-45.5 301.5zM797 1229q-108 0 -184.5 -45.5t-125 -118.5
t-70.5 -165.5t-22 -186.5q0 -95 22.5 -187t70.5 -164t124.5 -116.5t184.5 -44.5q110 0 186.5 45t124 118.5t69 166.5t21.5 188t-22 186.5t-70 163.5t-124 116t-185 44zM1138 1809v-238h-237v238h237zM479 1571v238h238v-238h-238z" />
    <glyph glyph-name="multiply" unicode="&#xd7;" horiz-adv-x="1229" 
d="M135 850l148 147l331 -331l332 331l148 -147l-334 -332l334 -332l-148 -147l-332 334l-331 -334l-148 147l332 332z" />
    <glyph glyph-name="Oslash" unicode="&#xd8;" horiz-adv-x="1593" 
d="M1042 1139q-50 48 -113.5 69t-131.5 21q-97 0 -174.5 -38.5t-130.5 -121.5q-51 -81 -74 -167.5t-23 -182.5q0 -84 17 -165.5t55 -156.5zM541 299q51 -53 117.5 -75.5t138.5 -22.5q110 0 186.5 45t124 118.5t69 166t21.5 188.5q0 85 -19 166.5t-61 156.5zM1405 1413
l-111 -143q55 -56 93.5 -120t63 -134t35.5 -145t11 -152q0 -164 -46 -300.5t-134.5 -235t-219.5 -153.5t-300 -55q-110 0 -218.5 26.5t-199.5 90.5l-117 -151l-92 73l121 156q-54 56 -91.5 120t-60.5 134t-33 144.5t-10 150.5q0 166 45.5 301.5t134.5 232t219.5 149
t301.5 52.5q106 0 210.5 -24.5t194.5 -83.5l111 143z" />
    <glyph glyph-name="Ugrave" unicode="&#xd9;" horiz-adv-x="1479" 
d="M156 1430h286v-826q0 -76 12.5 -148.5t46 -129t91 -91t147.5 -34.5q91 0 149 34t91 90t45 129t12 150v826h287v-914q0 -144 -40 -246.5t-115 -168t-183.5 -96t-245.5 -30.5t-245 30.5t-183 96t-115 168t-40 246.5v914zM918 1522h-170l-281 299h281z" />
    <glyph glyph-name="Uacute" unicode="&#xda;" horiz-adv-x="1479" 
d="M156 1430h286v-826q0 -76 12.5 -148.5t46 -129t91 -91t147.5 -34.5q91 0 149 34t91 90t45 129t12 150v826h287v-914q0 -144 -40 -246.5t-115 -168t-183.5 -96t-245.5 -30.5t-245 30.5t-183 96t-115 168t-40 246.5v914zM755 1821h281l-281 -299h-170z" />
    <glyph glyph-name="Ucircumflex" unicode="&#xdb;" horiz-adv-x="1479" 
d="M156 1430h286v-826q0 -76 12.5 -148.5t46 -129t91 -91t147.5 -34.5q91 0 149 34t91 90t45 129t12 150v826h287v-914q0 -144 -40 -246.5t-115 -168t-183.5 -96t-245.5 -30.5t-245 30.5t-183 96t-115 168t-40 246.5v914zM856 1821l215 -299h-182l-139 176l-144 -176h-182
l225 299h207z" />
    <glyph glyph-name="Udieresis" unicode="&#xdc;" horiz-adv-x="1479" 
d="M156 1430h286v-826q0 -76 12.5 -148.5t46 -129t91 -91t147.5 -34.5q91 0 149 34t91 90t45 129t12 150v826h287v-914q0 -144 -40 -246.5t-115 -168t-183.5 -96t-245.5 -30.5t-245 30.5t-183 96t-115 168t-40 246.5v914zM1077 1809v-238h-237v238h237zM418 1571v238h238
v-238h-238z" />
    <glyph glyph-name="Yacute" unicode="&#xdd;" horiz-adv-x="1366" 
d="M545 565l-522 865h335l338 -601l344 601h303l-512 -865v-565h-286v565zM702 1821h281l-281 -299h-170z" />
    <glyph glyph-name="Thorn" unicode="&#xde;" 
d="M141 0v1430h287v-238h84q105 0 209.5 -19.5t198.5 -68.5q49 -26 83.5 -63.5t56 -82.5t31 -96t9.5 -104q0 -52 -8 -102t-26.5 -95t-48.5 -84t-75 -69q-85 -58 -184.5 -80.5t-201.5 -22.5h-128v-305h-287zM428 530h107q54 0 102 10.5t84.5 35t58 65.5t21.5 102
q0 63 -21.5 106t-58.5 69t-87 37.5t-106 11.5h-100v-437z" />
    <glyph glyph-name="germandbls" unicode="&#xdf;" horiz-adv-x="1251" 
d="M147 0v1034q0 120 32.5 217.5t96 166.5t158 106t217.5 37q85 0 168.5 -23t149.5 -70t106.5 -117.5t40.5 -166.5q0 -285 -272 -363v-4q75 -9 138.5 -40.5t109.5 -80.5t72 -114t26 -142q0 -107 -36 -190.5t-100 -142t-152 -89t-191 -30.5q-44 0 -90.5 5.5t-88.5 16.5l9 213
q32 -14 70 -18t73 -4q18 0 35.5 3.5t34.5 8.5q44 14 73 40t46 60t23.5 74t6.5 82q0 71 -26.5 116t-70 70.5t-100 35t-116.5 9.5h-8v213q55 0 101 12.5t78 40t50 70t18 101.5q0 43 -10.5 81.5t-33 67.5t-56.5 45.5t-82 16.5q-60 0 -103 -26t-70 -67t-39.5 -93.5t-12.5 -104.5
v-1057h-275z" />
    <glyph glyph-name="agrave" unicode="&#xe0;" 
d="M188 999q91 40 185 60t194 20q217 0 330 -106.5t113 -326.5q0 -163 2.5 -323t13.5 -323h-242q-5 39 -8.5 78.5t-3.5 79.5h-4q-25 -43 -60.5 -77t-78 -57.5t-90.5 -36t-97 -12.5q-69 0 -135 21t-118 61t-83.5 98.5t-31.5 133.5q0 52 11.5 100t41.5 92q40 58 97 92
t123 51.5t137.5 22.5t140.5 5q35 0 69 -0.5t66 -0.5q0 63 -14 106.5t-43.5 70.5t-74.5 39t-106 12q-91 0 -172.5 -30t-152.5 -85zM336 305q0 -36 16 -60.5t41 -40t56 -22t61 -6.5q66 0 113.5 25.5t77.5 68t44.5 97.5t14.5 114v6h-166q-43 0 -89 -9t-83.5 -30.5t-61.5 -56.5
t-24 -86zM709 1198h-170l-281 299h281z" />
    <glyph glyph-name="aacute" unicode="&#xe1;" 
d="M188 999q91 40 185 60t194 20q217 0 330 -106.5t113 -326.5q0 -163 2.5 -323t13.5 -323h-242q-5 39 -8.5 78.5t-3.5 79.5h-4q-25 -43 -60.5 -77t-78 -57.5t-90.5 -36t-97 -12.5q-69 0 -135 21t-118 61t-83.5 98.5t-31.5 133.5q0 52 11.5 100t41.5 92q40 58 97 92
t123 51.5t137.5 22.5t140.5 5q35 0 69 -0.5t66 -0.5q0 63 -14 106.5t-43.5 70.5t-74.5 39t-106 12q-91 0 -172.5 -30t-152.5 -85zM336 305q0 -36 16 -60.5t41 -40t56 -22t61 -6.5q66 0 113.5 25.5t77.5 68t44.5 97.5t14.5 114v6h-166q-43 0 -89 -9t-83.5 -30.5t-61.5 -56.5
t-24 -86zM600 1497h281l-281 -299h-170z" />
    <glyph glyph-name="acircumflex" unicode="&#xe2;" 
d="M188 999q91 40 185 60t194 20q217 0 330 -106.5t113 -326.5q0 -163 2.5 -323t13.5 -323h-242q-5 39 -8.5 78.5t-3.5 79.5h-4q-25 -43 -60.5 -77t-78 -57.5t-90.5 -36t-97 -12.5q-69 0 -135 21t-118 61t-83.5 98.5t-31.5 133.5q0 52 11.5 100t41.5 92q40 58 97 92
t123 51.5t137.5 22.5t140.5 5q35 0 69 -0.5t66 -0.5q0 63 -14 106.5t-43.5 70.5t-74.5 39t-106 12q-91 0 -172.5 -30t-152.5 -85zM336 305q0 -36 16 -60.5t41 -40t56 -22t61 -6.5q66 0 113.5 25.5t77.5 68t44.5 97.5t14.5 114v6h-166q-43 0 -89 -9t-83.5 -30.5t-61.5 -56.5
t-24 -86zM684 1497l215 -299h-182l-139 176l-144 -176h-182l225 299h207z" />
    <glyph glyph-name="atilde" unicode="&#xe3;" 
d="M188 999q91 40 185 60t194 20q217 0 330 -106.5t113 -326.5q0 -163 2.5 -323t13.5 -323h-242q-5 39 -8.5 78.5t-3.5 79.5h-4q-25 -43 -60.5 -77t-78 -57.5t-90.5 -36t-97 -12.5q-69 0 -135 21t-118 61t-83.5 98.5t-31.5 133.5q0 52 11.5 100t41.5 92q40 58 97 92
t123 51.5t137.5 22.5t140.5 5q35 0 69 -0.5t66 -0.5q0 63 -14 106.5t-43.5 70.5t-74.5 39t-106 12q-91 0 -172.5 -30t-152.5 -85zM336 305q0 -36 16 -60.5t41 -40t56 -22t61 -6.5q66 0 113.5 25.5t77.5 68t44.5 97.5t14.5 114v6h-166q-43 0 -89 -9t-83.5 -30.5t-61.5 -56.5
t-24 -86zM211 1235q1 43 16 87t42 80t65 58.5t86 22.5q45 0 86.5 -13.5t81 -29.5t76 -29.5t71.5 -13.5q47 0 69 28t22 72h110q0 -46 -11.5 -90.5t-35.5 -79.5t-61.5 -56.5t-89.5 -21.5q-43 0 -90 10t-87 27q-34 14 -67.5 26.5t-71.5 12.5q-40 0 -70 -23.5t-30 -66.5h-111z
" />
    <glyph glyph-name="adieresis" unicode="&#xe4;" 
d="M188 999q91 40 185 60t194 20q217 0 330 -106.5t113 -326.5q0 -163 2.5 -323t13.5 -323h-242q-5 39 -8.5 78.5t-3.5 79.5h-4q-25 -43 -60.5 -77t-78 -57.5t-90.5 -36t-97 -12.5q-69 0 -135 21t-118 61t-83.5 98.5t-31.5 133.5q0 52 11.5 100t41.5 92q40 58 97 92
t123 51.5t137.5 22.5t140.5 5q35 0 69 -0.5t66 -0.5q0 63 -14 106.5t-43.5 70.5t-74.5 39t-106 12q-91 0 -172.5 -30t-152.5 -85zM336 305q0 -36 16 -60.5t41 -40t56 -22t61 -6.5q66 0 113.5 25.5t77.5 68t44.5 97.5t14.5 114v6h-166q-43 0 -89 -9t-83.5 -30.5t-61.5 -56.5
t-24 -86zM905 1485v-238h-237v238h237zM246 1247v238h238v-238h-238z" />
    <glyph glyph-name="aring" unicode="&#xe5;" 
d="M188 999q91 40 185 60t194 20q217 0 330 -106.5t113 -326.5q0 -163 2.5 -323t13.5 -323h-242q-5 39 -8.5 78.5t-3.5 79.5h-4q-25 -43 -60.5 -77t-78 -57.5t-90.5 -36t-97 -12.5q-69 0 -135 21t-118 61t-83.5 98.5t-31.5 133.5q0 52 11.5 100t41.5 92q40 58 97 92
t123 51.5t137.5 22.5t140.5 5q35 0 69 -0.5t66 -0.5q0 63 -14 106.5t-43.5 70.5t-74.5 39t-106 12q-91 0 -172.5 -30t-152.5 -85zM336 305q0 -36 16 -60.5t41 -40t56 -22t61 -6.5q66 0 113.5 25.5t77.5 68t44.5 97.5t14.5 114v6h-166q-43 0 -89 -9t-83.5 -30.5t-61.5 -56.5
t-24 -86zM363 1403q0 45 17.5 84.5t47.5 69.5t69.5 47.5t84.5 17.5q46 0 86 -17t69 -46.5t45.5 -69.5t16.5 -86q0 -45 -17 -85t-46 -69t-69 -46t-85 -17q-44 0 -83.5 17.5t-69.5 47t-48 69t-18 83.5zM473 1403q0 -22 9 -41.5t24 -34t34.5 -23t41.5 -8.5q47 0 76.5 30.5
t29.5 76.5q0 50 -27.5 79t-78.5 29q-48 0 -78.5 -30t-30.5 -78z" />
    <glyph glyph-name="ae" unicode="&#xe6;" horiz-adv-x="1821" 
d="M1675 59q-82 -48 -175 -66t-187 -18q-63 0 -125.5 10t-120 32.5t-108 59t-89.5 89.5q-27 -47 -71 -82.5t-96.5 -59.5t-109.5 -36.5t-109 -12.5q-76 0 -149.5 16.5t-131.5 53.5t-93.5 97t-35.5 147q0 50 10.5 95t38.5 87q42 63 103 99t132 54t147.5 22.5t148.5 4.5h106
q0 64 -15 108t-45 71t-76 39t-108 12q-88 0 -172.5 -31.5t-153.5 -85.5l-8 235q88 40 183 60t192 20q55 0 104 -4t93 -18t84 -40t77 -71q34 38 76 63.5t89 41t97 22t99 6.5q56 0 112 -11t106 -34t91.5 -60t69.5 -89q26 -48 43.5 -101.5t28.5 -110t15.5 -113t4.5 -110.5v-8
h-725q1 -65 25.5 -115t65.5 -83.5t96 -50.5t116 -17q94 0 182 30t168 77v-224zM336 289q0 -30 15 -51.5t38 -35t50.5 -20t52.5 -6.5q72 0 123 21t83.5 60t47 94t14.5 123v13h-166q-13 0 -25.5 -2t-25.5 -4q-41 -6 -78 -19.5t-66 -36.5t-46 -56.5t-17 -79.5zM1485 631
q0 52 -12.5 97.5t-38.5 79t-66.5 52.5t-97.5 19q-56 0 -101.5 -18t-78 -50.5t-50.5 -78t-18 -101.5h463z" />
    <glyph glyph-name="ccedilla" unicode="&#xe7;" horiz-adv-x="909" 
d="M825 827q-43 24 -90.5 31.5t-95.5 7.5q-72 0 -124.5 -28t-87 -74.5t-51 -106.5t-16.5 -125q0 -67 16.5 -129t51.5 -110t89 -76.5t128 -28.5q50 0 108 14.5t103 35.5l12 -228q-55 -17 -112.5 -24t-114.5 -9l-76 -86l4 -4q20 8 41.5 10.5t42.5 2.5q33 0 63 -8.5t52.5 -26.5
t35.5 -44.5t13 -62.5q0 -55 -21.5 -95t-57 -66.5t-81.5 -39t-96 -12.5q-25 0 -56.5 2.5t-64 8t-63 13.5t-53.5 19l41 111q35 -9 71 -20t72 -11q17 0 36 3.5t35 12t26.5 22t10.5 34.5q0 38 -24.5 56t-59.5 18q-24 0 -47 -4t-45 -15l-30 53l106 134q-113 15 -196.5 61.5
t-138 119t-81 166.5t-26.5 203q0 117 34 217.5t99 173.5t160 114.5t217 41.5q67 0 134.5 -7.5t131.5 -27.5z" />
    <glyph glyph-name="egrave" unicode="&#xe8;" 
d="M803 631q-2 52 -16 97.5t-41 79t-68 52.5t-98 19q-56 0 -99.5 -19t-74.5 -52t-48.5 -78.5t-21.5 -98.5h467zM987 59q-82 -48 -175 -66t-187 -18q-133 0 -235.5 35.5t-172.5 105t-106.5 171.5t-36.5 235q0 115 30 216.5t90.5 177t152.5 119.5t216 44q57 0 114.5 -8.5
t110.5 -29t98 -55t77 -85.5q30 -48 49.5 -103.5t31 -114.5t16.5 -118.5t5 -114.5v-8h-729q5 -63 29.5 -112.5t64 -83.5t92.5 -52t115 -18q94 0 182 30t168 77v-224zM709 1198h-170l-281 299h281z" />
    <glyph glyph-name="eacute" unicode="&#xe9;" 
d="M803 631q-2 52 -16 97.5t-41 79t-68 52.5t-98 19q-56 0 -99.5 -19t-74.5 -52t-48.5 -78.5t-21.5 -98.5h467zM987 59q-82 -48 -175 -66t-187 -18q-133 0 -235.5 35.5t-172.5 105t-106.5 171.5t-36.5 235q0 115 30 216.5t90.5 177t152.5 119.5t216 44q57 0 114.5 -8.5
t110.5 -29t98 -55t77 -85.5q30 -48 49.5 -103.5t31 -114.5t16.5 -118.5t5 -114.5v-8h-729q5 -63 29.5 -112.5t64 -83.5t92.5 -52t115 -18q94 0 182 30t168 77v-224zM600 1497h281l-281 -299h-170z" />
    <glyph glyph-name="ecircumflex" unicode="&#xea;" 
d="M803 631q-2 52 -16 97.5t-41 79t-68 52.5t-98 19q-56 0 -99.5 -19t-74.5 -52t-48.5 -78.5t-21.5 -98.5h467zM987 59q-82 -48 -175 -66t-187 -18q-133 0 -235.5 35.5t-172.5 105t-106.5 171.5t-36.5 235q0 115 30 216.5t90.5 177t152.5 119.5t216 44q57 0 114.5 -8.5
t110.5 -29t98 -55t77 -85.5q30 -48 49.5 -103.5t31 -114.5t16.5 -118.5t5 -114.5v-8h-729q5 -63 29.5 -112.5t64 -83.5t92.5 -52t115 -18q94 0 182 30t168 77v-224zM684 1497l215 -299h-182l-139 176l-144 -176h-182l225 299h207z" />
    <glyph glyph-name="edieresis" unicode="&#xeb;" 
d="M803 631q-2 52 -16 97.5t-41 79t-68 52.5t-98 19q-56 0 -99.5 -19t-74.5 -52t-48.5 -78.5t-21.5 -98.5h467zM987 59q-82 -48 -175 -66t-187 -18q-133 0 -235.5 35.5t-172.5 105t-106.5 171.5t-36.5 235q0 115 30 216.5t90.5 177t152.5 119.5t216 44q57 0 114.5 -8.5
t110.5 -29t98 -55t77 -85.5q30 -48 49.5 -103.5t31 -114.5t16.5 -118.5t5 -114.5v-8h-729q5 -63 29.5 -112.5t64 -83.5t92.5 -52t115 -18q94 0 182 30t168 77v-224zM905 1485v-238h-237v238h237zM246 1247v238h238v-238h-238z" />
    <glyph glyph-name="igrave" unicode="&#xec;" horiz-adv-x="569" 
d="M147 0v1055h275v-1055h-275zM417 1198h-170l-281 299h281z" />
    <glyph glyph-name="iacute" unicode="&#xed;" horiz-adv-x="569" 
d="M147 0v1055h275v-1055h-275zM303 1497h281l-281 -299h-170z" />
    <glyph glyph-name="icircumflex" unicode="&#xee;" horiz-adv-x="569" 
d="M147 0v1055h275v-1055h-275zM392 1497l215 -299h-182l-139 176l-144 -176h-182l225 299h207z" />
    <glyph glyph-name="idieresis" unicode="&#xef;" horiz-adv-x="569" 
d="M147 0v1055h275v-1055h-275zM613 1485v-238h-237v238h237zM-46 1247v238h238v-238h-238z" />
    <glyph glyph-name="eth" unicode="&#xf0;" horiz-adv-x="1251" 
d="M629 842q-66 0 -116.5 -29t-84 -75.5t-51 -105.5t-17.5 -118q0 -60 17 -118.5t50.5 -104.5t83.5 -74.5t116 -28.5q70 0 119.5 27.5t80 73t44.5 104.5t14 121q0 39 -8.5 82.5t-25.5 85t-42.5 76t-60.5 55.5q-26 16 -57.5 22.5t-61.5 6.5zM467 1327q-48 29 -98.5 54.5
t-104.5 43.5l125 140q68 -25 132.5 -55t127.5 -66l189 121l104 -97l-170 -108q97 -69 171.5 -155.5t125 -186t76.5 -210.5t26 -230q0 -135 -31.5 -246.5t-98.5 -190.5t-170 -122.5t-246 -43.5q-123 0 -224.5 39.5t-174 112t-112.5 174t-40 224.5q0 107 32 203.5t92.5 169
t149.5 115t203 42.5q68 0 131.5 -13t120.5 -53h4q-38 77 -93.5 140t-123.5 114l-189 -123l-104 97z" />
    <glyph glyph-name="ntilde" unicode="&#xf1;" horiz-adv-x="1251" 
d="M141 1055h260v-144h5q66 86 151.5 127t194.5 41q96 0 164 -31.5t111 -86.5t63 -131t20 -164v-666h-274v563q0 53 -2.5 101.5t-20.5 99.5q-21 59 -58 80.5t-98 21.5q-69 0 -115 -33.5t-74 -85t-40 -113t-12 -118.5v-516h-275v1055zM268 1235q1 43 16 87t42 80t65 58.5
t86 22.5q45 0 86.5 -13.5t81 -29.5t76 -29.5t71.5 -13.5q47 0 69 28t22 72h110q0 -46 -11.5 -90.5t-35.5 -79.5t-61.5 -56.5t-89.5 -21.5q-43 0 -90 10t-87 27q-34 14 -67.5 26.5t-71.5 12.5q-40 0 -70 -23.5t-30 -66.5h-111z" />
    <glyph glyph-name="ograve" unicode="&#xf2;" horiz-adv-x="1251" 
d="M74 520q0 124 39 227t111 176.5t173.5 114.5t227.5 41t228.5 -40.5t174.5 -114t111 -176.5t39 -228q0 -123 -40.5 -224t-113.5 -172t-175 -110t-224 -39t-223 39.5t-174 111t-113.5 172t-40.5 222.5zM360 553q0 -15 1.5 -30.5t3.5 -30.5q6 -41 13 -79.5t21.5 -72.5
t37.5 -63.5t61 -53.5q30 -20 61 -27.5t66 -7.5q81 0 132.5 32t81 83.5t41 117t11.5 132.5q0 63 -16 119.5t-48.5 99.5t-82.5 68.5t-119 25.5q-66 0 -115.5 -26.5t-82.5 -70t-50 -100t-17 -116.5zM768 1198h-170l-281 299h281z" />
    <glyph glyph-name="oacute" unicode="&#xf3;" horiz-adv-x="1251" 
d="M74 520q0 124 39 227t111 176.5t173.5 114.5t227.5 41t228.5 -40.5t174.5 -114t111 -176.5t39 -228q0 -123 -40.5 -224t-113.5 -172t-175 -110t-224 -39t-223 39.5t-174 111t-113.5 172t-40.5 222.5zM360 553q0 -15 1.5 -30.5t3.5 -30.5q6 -41 13 -79.5t21.5 -72.5
t37.5 -63.5t61 -53.5q30 -20 61 -27.5t66 -7.5q81 0 132.5 32t81 83.5t41 117t11.5 132.5q0 63 -16 119.5t-48.5 99.5t-82.5 68.5t-119 25.5q-66 0 -115.5 -26.5t-82.5 -70t-50 -100t-17 -116.5zM657 1497h281l-281 -299h-170z" />
    <glyph glyph-name="ocircumflex" unicode="&#xf4;" horiz-adv-x="1251" 
d="M74 520q0 124 39 227t111 176.5t173.5 114.5t227.5 41t228.5 -40.5t174.5 -114t111 -176.5t39 -228q0 -123 -40.5 -224t-113.5 -172t-175 -110t-224 -39t-223 39.5t-174 111t-113.5 172t-40.5 222.5zM360 553q0 -15 1.5 -30.5t3.5 -30.5q6 -41 13 -79.5t21.5 -72.5
t37.5 -63.5t61 -53.5q30 -20 61 -27.5t66 -7.5q81 0 132.5 32t81 83.5t41 117t11.5 132.5q0 63 -16 119.5t-48.5 99.5t-82.5 68.5t-119 25.5q-66 0 -115.5 -26.5t-82.5 -70t-50 -100t-17 -116.5zM741 1497l215 -299h-182l-139 176l-144 -176h-182l225 299h207z" />
    <glyph glyph-name="otilde" unicode="&#xf5;" horiz-adv-x="1251" 
d="M74 520q0 124 39 227t111 176.5t173.5 114.5t227.5 41t228.5 -40.5t174.5 -114t111 -176.5t39 -228q0 -123 -40.5 -224t-113.5 -172t-175 -110t-224 -39t-223 39.5t-174 111t-113.5 172t-40.5 222.5zM360 553q0 -15 1.5 -30.5t3.5 -30.5q6 -41 13 -79.5t21.5 -72.5
t37.5 -63.5t61 -53.5q30 -20 61 -27.5t66 -7.5q81 0 132.5 32t81 83.5t41 117t11.5 132.5q0 63 -16 119.5t-48.5 99.5t-82.5 68.5t-119 25.5q-66 0 -115.5 -26.5t-82.5 -70t-50 -100t-17 -116.5zM268 1235q1 43 16 87t42 80t65 58.5t86 22.5q45 0 86.5 -13.5t81 -29.5
t76 -29.5t71.5 -13.5q47 0 69 28t22 72h110q0 -46 -11.5 -90.5t-35.5 -79.5t-61.5 -56.5t-89.5 -21.5q-43 0 -90 10t-87 27q-34 14 -67.5 26.5t-71.5 12.5q-40 0 -70 -23.5t-30 -66.5h-111z" />
    <glyph glyph-name="odieresis" unicode="&#xf6;" horiz-adv-x="1251" 
d="M74 520q0 124 39 227t111 176.5t173.5 114.5t227.5 41t228.5 -40.5t174.5 -114t111 -176.5t39 -228q0 -123 -40.5 -224t-113.5 -172t-175 -110t-224 -39t-223 39.5t-174 111t-113.5 172t-40.5 222.5zM360 553q0 -15 1.5 -30.5t3.5 -30.5q6 -41 13 -79.5t21.5 -72.5
t37.5 -63.5t61 -53.5q30 -20 61 -27.5t66 -7.5q81 0 132.5 32t81 83.5t41 117t11.5 132.5q0 63 -16 119.5t-48.5 99.5t-82.5 68.5t-119 25.5q-66 0 -115.5 -26.5t-82.5 -70t-50 -100t-17 -116.5zM962 1485v-238h-237v238h237zM303 1247v238h238v-238h-238z" />
    <glyph glyph-name="divide" unicode="&#xf7;" horiz-adv-x="1229" 
d="M94 412v213h1041v-213h-1041zM614 1083q72 0 115 -42t43 -115q0 -36 -11.5 -65t-32 -50t-49.5 -32t-65 -11q-34 0 -63 12t-50 33t-32.5 50t-11.5 63t11.5 63t32 50t49.5 32.5t64 11.5zM614 -47q-34 0 -63 12t-50 33t-32.5 50t-11.5 63t11.5 63t32 50t49.5 32.5t64 11.5
q72 0 115 -42t43 -115q0 -72 -43 -115t-115 -43z" />
    <glyph glyph-name="oslash" unicode="&#xf8;" horiz-adv-x="1251" 
d="M786 811q-32 29 -75 42t-86 13q-68 0 -118 -27.5t-82.5 -72.5t-48.5 -103t-16 -119q0 -51 8.5 -101.5t28.5 -98.5zM459 250q32 -35 76 -48.5t90 -13.5q81 0 132.5 32t81 83.5t41 117t11.5 132.5q0 45 -8.5 88t-28.5 84zM1133 1059l-111 -133q42 -40 72 -87t48.5 -99
t27 -107.5t8.5 -112.5q0 -123 -40.5 -224t-113.5 -172t-175 -110t-224 -39q-85 0 -167.5 20.5t-154.5 67.5l-113 -135l-84 68l115 137q-78 81 -112.5 178.5t-34.5 208.5q0 124 39 227t111 176.5t173.5 114.5t227.5 41q83 0 163.5 -20.5t151.5 -65.5l111 133z" />
    <glyph glyph-name="ugrave" unicode="&#xf9;" horiz-adv-x="1251" 
d="M1110 0h-260v143h-4q-64 -81 -153 -124.5t-193 -43.5q-94 0 -161.5 32t-111.5 88t-65 131.5t-21 162.5v666h275v-563q0 -12 1.5 -24t2.5 -24q3 -38 4.5 -76.5t15.5 -74.5q19 -51 59.5 -78t94.5 -27q71 0 118 33t74.5 84.5t38.5 113.5t11 120v516h274v-1055zM766 1198
h-170l-281 299h281z" />
    <glyph glyph-name="uacute" unicode="&#xfa;" horiz-adv-x="1251" 
d="M1110 0h-260v143h-4q-64 -81 -153 -124.5t-193 -43.5q-94 0 -161.5 32t-111.5 88t-65 131.5t-21 162.5v666h275v-563q0 -12 1.5 -24t2.5 -24q3 -38 4.5 -76.5t15.5 -74.5q19 -51 59.5 -78t94.5 -27q71 0 118 33t74.5 84.5t38.5 113.5t11 120v516h274v-1055zM655 1497h281
l-281 -299h-170z" />
    <glyph glyph-name="ucircumflex" unicode="&#xfb;" horiz-adv-x="1251" 
d="M1110 0h-260v143h-4q-64 -81 -153 -124.5t-193 -43.5q-94 0 -161.5 32t-111.5 88t-65 131.5t-21 162.5v666h275v-563q0 -12 1.5 -24t2.5 -24q3 -38 4.5 -76.5t15.5 -74.5q19 -51 59.5 -78t94.5 -27q71 0 118 33t74.5 84.5t38.5 113.5t11 120v516h274v-1055zM739 1497
l215 -299h-182l-139 176l-144 -176h-182l225 299h207z" />
    <glyph glyph-name="udieresis" unicode="&#xfc;" horiz-adv-x="1251" 
d="M1110 0h-260v143h-4q-64 -81 -153 -124.5t-193 -43.5q-94 0 -161.5 32t-111.5 88t-65 131.5t-21 162.5v666h275v-563q0 -12 1.5 -24t2.5 -24q3 -38 4.5 -76.5t15.5 -74.5q19 -51 59.5 -78t94.5 -27q71 0 118 33t74.5 84.5t38.5 113.5t11 120v516h274v-1055zM960 1485
v-238h-237v238h237zM301 1247v238h238v-238h-238z" />
    <glyph glyph-name="yacute" unicode="&#xfd;" 
d="M580 285h4l254 770h278l-395 -1047q-21 -56 -41.5 -112.5t-45 -107.5t-55.5 -95.5t-72.5 -77.5t-96.5 -51.5t-127 -18.5q-99 0 -195 29l18 203q32 -13 70.5 -16t71.5 -3q38 0 71.5 13t59.5 41q21 23 32 51.5t14 60.5q0 1 1 11.5t0 11.5l-403 1108h303zM600 1497h281
l-281 -299h-170z" />
    <glyph glyph-name="thorn" unicode="&#xfe;" horiz-adv-x="1251" 
d="M141 1536h275v-618h4q24 42 59 72t76 50t87 29.5t93 9.5q123 0 208 -45t137 -120.5t75 -175t23 -208.5q0 -108 -23 -208t-75.5 -177.5t-137 -123.5t-207.5 -46q-93 0 -174.5 35.5t-140.5 108.5h-4v-549h-275v1966zM664 866q-68 0 -115 -32t-76 -82t-42 -110.5t-13 -117.5
q0 -54 14 -113t43 -108.5t75 -82t109 -32.5q68 0 112.5 33t71 83t37.5 110.5t11 115.5t-10 114.5t-35.5 109t-69.5 81t-112 31.5z" />
    <glyph glyph-name="ydieresis" unicode="&#xff;" 
d="M580 285h4l254 770h278l-395 -1047q-21 -56 -41.5 -112.5t-45 -107.5t-55.5 -95.5t-72.5 -77.5t-96.5 -51.5t-127 -18.5q-99 0 -195 29l18 203q32 -13 70.5 -16t71.5 -3q38 0 71.5 13t59.5 41q21 23 32 51.5t14 60.5q0 1 1 11.5t0 11.5l-403 1108h303zM907 1485v-238
h-237v238h237zM248 1247v238h238v-238h-238z" />
    <glyph glyph-name="dotlessi" unicode="&#x131;" horiz-adv-x="569" 
d="M147 0v1055h275v-1055h-275z" />
    <glyph glyph-name="Lslash" unicode="&#x141;" horiz-adv-x="1024" 
d="M16 408v188l150 90v744h287v-574l344 205v-189l-344 -204v-443h555v-225h-842v498z" />
    <glyph glyph-name="lslash" unicode="&#x142;" horiz-adv-x="569" 
d="M0 512v188l147 88v748h275v-584l147 88v-188l-147 -88v-764h-275v600z" />
    <glyph glyph-name="OE" unicode="&#x152;" horiz-adv-x="1933" 
d="M1823 1204h-533v-352h488v-225h-488v-402h541v-225h-543q-115 0 -229.5 -6t-229.5 -6q-358 0 -545.5 178.5t-187.5 540.5q0 64 8.5 129.5t25.5 127.5q36 135 107 226.5t167 147.5t213.5 80t248.5 24q106 0 211 -5t211 -7q45 -1 89 -1h89q90 0 178.5 0.5t178.5 0.5v-226z
M1004 1204q-37 6 -75.5 9.5t-76.5 3.5q-115 0 -201 -39t-143 -108t-85 -162t-28 -201q0 -107 31.5 -197.5t91 -156.5t146 -103t196.5 -37q36 0 72.5 2t71.5 10v979z" />
    <glyph glyph-name="oe" unicode="&#x153;" horiz-adv-x="1933" 
d="M625 879q-72 0 -122 -33.5t-82 -85.5t-46.5 -116t-14.5 -125q0 -63 14 -124.5t45.5 -110t82 -78.5t123.5 -30q77 0 129 29t84 77t45.5 110.5t13.5 129.5t-13.5 131t-45 114.5t-83.5 81t-130 30.5zM1171 442q3 -64 25.5 -113.5t61 -83.5t91 -51.5t115.5 -17.5
q174 0 314 105l8 -224q-81 -46 -159 -64t-171 -18q-61 0 -122 7t-117 26.5t-104.5 53.5t-84.5 88q-75 -95 -175.5 -135t-219.5 -40q-123 0 -225.5 38.5t-177 109.5t-115.5 171.5t-41 225.5q0 124 39 227t111 176.5t173.5 114.5t227.5 41q119 0 218.5 -42.5t174.5 -137.5
q32 46 72.5 80t88 56.5t100 33t107.5 10.5q57 0 113.5 -10t106.5 -32.5t91.5 -59t69.5 -90.5q52 -100 72.5 -213t20.5 -224v-8h-689zM1597 631q-1 50 -12.5 95t-36.5 79t-64 54t-95 20q-53 0 -93.5 -20.5t-68 -55t-42 -79t-14.5 -93.5h426z" />
    <glyph glyph-name="Scaron" unicode="&#x160;" 
d="M934 1167q-69 30 -142.5 46t-148.5 16q-48 0 -89 -12t-71 -36.5t-47.5 -62t-17.5 -88.5q0 -38 21 -66.5t56 -50.5t81 -41t97 -39t102.5 -43t98.5 -54.5t85 -73t61 -97.5q14 -35 19 -77.5t5 -79.5q0 -119 -44 -201.5t-118 -134t-171 -74.5t-203 -23q-94 0 -185 16.5
t-182 39.5l27 258q74 -42 156.5 -65t167.5 -23q41 0 86 10.5t82 33t61 57t24 83.5q0 23 -5.5 46t-18.5 42q-12 17 -32.5 34t-39.5 28q-51 29 -106 51t-109 43q-29 11 -57 25.5t-55 31.5q-50 30 -88 63t-63.5 72.5t-38.5 88t-13 108.5q0 49 8.5 98t27.5 93t49 82.5t72 66.5
q75 51 163.5 73.5t178.5 22.5q88 0 173.5 -12t169.5 -39zM475 1522l-225 299h182l144 -176l139 176h182l-215 -299h-207z" />
    <glyph glyph-name="scaron" unicode="&#x161;" horiz-adv-x="909" 
d="M768 834q-63 24 -121 34.5t-125 10.5q-28 0 -57 -5.5t-52 -19t-38 -36t-15 -56.5q0 -31 20.5 -50.5t54 -33.5t76.5 -26t88 -27.5t88 -38t76.5 -57.5t54 -86t20.5 -124q0 -94 -38.5 -159.5t-101 -106.5t-142 -59.5t-161.5 -18.5q-79 0 -157 12t-154 33l16 226
q128 -70 271 -70q30 0 61.5 7t58 22.5t43.5 40t17 59.5q0 17 -4 35.5t-15 32.5q-16 21 -43.5 34.5t-63 25t-75 22t-78.5 25.5t-75 36.5t-63 53t-43.5 76t-16.5 106.5q0 87 35.5 149t93.5 101.5t132.5 58t151.5 18.5q78 0 151 -9.5t148 -29.5zM356 1198l-225 299h182
l144 -176l139 176h182l-215 -299h-207z" />
    <glyph glyph-name="Ydieresis" unicode="&#x178;" horiz-adv-x="1366" 
d="M545 565l-522 865h335l338 -601l344 601h303l-512 -865v-565h-286v565zM1026 1809v-238h-237v238h237zM367 1571v238h238v-238h-238z" />
    <glyph glyph-name="Zcaron" unicode="&#x17d;" 
d="M74 233l671 971h-645v226h951v-234l-678 -971h692v-225h-991v233zM471 1522l-225 299h182l144 -176l139 176h182l-215 -299h-207z" />
    <glyph glyph-name="zcaron" unicode="&#x17e;" horiz-adv-x="1024" 
d="M96 1055h836v-226l-524 -616h542v-213h-876v223l534 619h-512v213zM413 1198l-225 299h182l144 -176l139 176h182l-215 -299h-207z" />
    </font>
</defs>
</svg>
